<svg xmlns="http://www.w3.org/2000/svg">
<defs>
<font id="SiyamRupali" horiz-adv-x="1128" >
  <font-face 
    font-family="Siyam Rupali"
    font-weight="400"
    font-stretch="normal"
    units-per-em="2048"
    panose-1="2 0 5 0 0 0 0 2 0 4"
    ascent="1638"
    descent="-410"
    x-height="1098"
    cap-height="1462"
    bbox="-1744 -921 2991 2493"
    underline-thickness="20"
    underline-position="-143"
    unicode-range="U+000D-25CC"
  />
<missing-glyph horiz-adv-x="1382" 
d="M174 1543h1037v-1543h-1037v1543zM1037 142v1259h-691v-1259h691z" />
    <glyph glyph-name=".notdef" horiz-adv-x="1382" 
d="M174 1543h1037v-1543h-1037v1543zM1037 142v1259h-691v-1259h691z" />
    <glyph glyph-name=".null" horiz-adv-x="0" 
 />
    <glyph glyph-name=".null" horiz-adv-x="0" 
 />
    <glyph glyph-name="nonmarkingreturn" unicode="&#xd;" horiz-adv-x="744" 
 />
    <glyph glyph-name="space" unicode=" " horiz-adv-x="744" 
 />
    <glyph glyph-name="exclam" unicode="!" horiz-adv-x="815" 
d="M585 1564l-19 -1030h-135l-18 1030h172zM501 112q-46 0 -78.5 32t-32.5 78t32.5 78.5t78.5 32.5q45 0 78 -32.5t33 -78.5t-33 -78t-78 -32z" />
    <glyph glyph-name="quotedbl" unicode="&#x22;" horiz-adv-x="960" 
d="M622 1045v545h142v-545h-142zM196 1039v551h141v-551h-141z" />
    <glyph glyph-name="numbersign" unicode="#" horiz-adv-x="1382" 
d="M108 1127v142h1261v-142h-1261zM906 36l-146 22l271 1747l142 -22zM378 36l-143 22l271 1747l142 -22zM8 597v141h1289v-141h-1289z" />
    <glyph glyph-name="percent" unicode="%" horiz-adv-x="1705" 
d="M404 725q-148 0 -236 97.5t-88 260.5q0 178 93 280.5t251 102.5q153 0 237.5 -95t84.5 -267t-94.5 -275.5t-247.5 -103.5zM418 1356q-95 0 -150 -70.5t-55 -193.5q0 -121 54 -188.5t147 -67.5q94 0 147 70t53 194q0 121 -52.5 188.5t-143.5 67.5zM1324 1382l-880 -1382
l-102 63l878 1381zM1258 -12q-148 0 -236 98t-88 260q0 178 94 281.5t250 103.5q152 0 237 -96t85 -269q0 -171 -94.5 -274.5t-247.5 -103.5zM1272 618q-96 0 -150.5 -70t-54.5 -194q0 -119 54 -186.5t147 -67.5q94 0 147 70.5t53 193.5q0 122 -52.5 188t-143.5 66z" />
    <glyph glyph-name="ampersand" unicode="&#x26;" horiz-adv-x="1448" 
d="M1426 0h-230l-154 158q-194 -182 -468 -182q-213 0 -334 109t-121 277q0 252 327 420q-155 198 -155 338q0 146 106.5 242t270.5 96q156 0 249 -85t93 -214q0 -127 -69 -216.5t-255 -182.5q206 -218 375 -383q110 162 115 381h151q-1 -272 -172 -486q41 -40 271 -272z
M850 1145q0 77 -52.5 129.5t-125.5 52.5q-100 0 -159 -58t-59 -149q0 -109 142 -266q254 122 254 291zM948 256q-140 142 -410 426q-252 -123 -252 -314q0 -112 81.5 -183t206.5 -71q220 0 374 142z" />
    <glyph glyph-name="quotesingle" unicode="'" horiz-adv-x="425" 
d="M143 1045v561h142v-561h-142z" />
    <glyph glyph-name="parenleft" unicode="(" horiz-adv-x="921" 
d="M868 1810q-140 -87 -245 -206t-173.5 -260t-102.5 -297t-34 -317q0 -166 36 -330t105.5 -313.5t171.5 -278t234 -222.5l-89 -103q-146 108 -258 249t-187.5 302.5t-115 338t-39.5 355.5q0 172 37.5 342.5t113 325t191.5 288.5t273 237z" />
    <glyph glyph-name="parenright" unicode=")" horiz-adv-x="921" 
d="M103 -414q135 109 236 240.5t168.5 276.5t100.5 299t33 308q0 159 -34.5 314t-103 297t-171 266.5t-238.5 222.5l83 111q150 -125 264 -269t189.5 -300.5t114 -322t38.5 -332.5q0 -164 -37 -326.5t-110.5 -318t-185 -299t-260.5 -270.5z" />
    <glyph glyph-name="asterisk" unicode="*" horiz-adv-x="1382" 
d="M1145 1615l66 -122l-373 -208l368 -224l-72 -116l-377 229v-433h-135v446l-379 -208l-66 121l364 219l-370 219l72 116l379 -224v414h135v-422z" />
    <glyph glyph-name="plus" unicode="+" horiz-adv-x="1559" 
d="M707 24v633h-625v142h625v614h143v-614h624v-142h-625v-633h-142z" />
    <glyph glyph-name="comma" unicode="," horiz-adv-x="691" 
d="M174 -329q54 13 98.5 45t75.5 73t48.5 87.5t17.5 89.5q0 34 -10.5 63t-33 50.5t-57.5 34.5t-83 13h-22l43 134q78 0 136.5 -24.5t95.5 -65.5t55 -95t18 -112q0 -61 -19 -124t-56.5 -118t-92.5 -98.5t-127 -66.5z" />
    <glyph glyph-name="hyphen" unicode="-" horiz-adv-x="921" 
d="M119 552v142h683v-142h-683z" />
    <glyph glyph-name="period" unicode="." horiz-adv-x="691" 
d="M346 279q72 0 116 -43.5t44 -116.5q0 -33 -12.5 -61t-35 -50t-51.5 -34.5t-61 -12.5q-33 0 -61.5 12.5t-50 34.5t-34 50t-12.5 61q0 34 12 63t33 50.5t50 34t63 12.5z" />
    <glyph glyph-name="slash" unicode="/" horiz-adv-x="768" 
d="M144 -279l-141 44l685 2132l142 -45z" />
    <glyph glyph-name="colon" unicode=":" horiz-adv-x="768" 
d="M208 1104q0 33 12.5 62.5t34.5 51.5t51.5 35t62.5 13t62.5 -13t51.5 -35t35 -51.5t13 -62.5t-13 -62.5t-35 -51.5t-51.5 -34.5t-62.5 -12.5t-62.5 12.5t-51.5 34.5t-34.5 51.5t-12.5 62.5zM208 191q0 33 12.5 62.5t34.5 51.5t51.5 35t62.5 13t62.5 -13t51.5 -35t35 -51.5
t13 -62.5t-13 -62.5t-35 -51.5t-51.5 -34.5t-62.5 -12.5t-62.5 12.5t-51.5 34.5t-34.5 51.5t-12.5 62.5z" />
    <glyph glyph-name="semicolon" unicode=";" horiz-adv-x="768" 
d="M188 -321q243 172 243 337q0 80 -69 100l-43 -8l-87 -58l-79 119q77 43 127.5 65t73.5 22q50 0 89.5 -18.5t68 -51t43.5 -77t15 -96.5q0 -143 -92 -259q-28 -38 -80 -83t-127 -102zM187 997q0 33 12.5 62.5t34.5 51.5t51.5 35t62.5 13t62.5 -13t51.5 -35t35 -51.5
t13 -62.5t-13 -62.5t-35 -51.5t-51.5 -34.5t-62.5 -12.5t-62.5 12.5t-51.5 34.5t-34.5 51.5t-12.5 62.5z" />
    <glyph glyph-name="less" unicode="&#x3c;" horiz-adv-x="1559" 
d="M309 722l1200 -567l-60 -139l-1375 631v141l1383 642l60 -142z" />
    <glyph glyph-name="equal" unicode="=" horiz-adv-x="1559" 
d="M1477 902h-1395v177h1395v-177zM1477 364h-1395v177h1395v-177z" />
    <glyph glyph-name="greater" unicode="&#x3e;" horiz-adv-x="1559" 
d="M155 16l-61 139l1199 567l-1208 566l62 142l1383 -642v-141z" />
    <glyph glyph-name="question" unicode="?" horiz-adv-x="853" 
d="M387 598q0 -73 69 -119l-82 -106q-59 39 -87.5 96t-28.5 133q0 57 27.5 103.5t70 89t91 83t91 85t70.5 96.5t28 117q0 38 -16.5 71.5t-43.5 59t-61 40.5t-72 15q-19 0 -45.5 -8t-50.5 -21t-41.5 -27.5t-17.5 -27.5q0 -50 99 -74l-21 -138q-216 37 -216 223q0 47 29 85.5
t73 66.5t94 43.5t91 15.5q61 0 122 -25.5t109.5 -68.5t79 -99.5t30.5 -118.5v-15q-6 -75 -27 -133.5t-57.5 -109t-87.5 -98.5t-116 -103q-103 -86 -103 -131zM385 38q-46 0 -78.5 32t-32.5 78t32.5 78.5t78.5 32.5q45 0 78 -32.5t33 -78.5t-33 -78t-78 -32z" />
    <glyph glyph-name="at" unicode="@" horiz-adv-x="1955" 
d="M1164 420h-5q-73 -238 -287 -238q-137 0 -220.5 101t-83.5 272q0 226 115.5 375.5t303.5 149.5q72 0 128.5 -37t72.5 -93h4q2 28 10 115h125q-47 -551 -47 -561q0 -207 119 -207q108 0 179.5 117t71.5 303q0 275 -174 449t-482 174q-297 0 -491 -208t-194 -520
q0 -307 184.5 -495.5t497.5 -188.5q247 0 422 82v-124q-173 -74 -432 -74q-364 0 -586.5 219.5t-222.5 574.5q0 366 233.5 607t596.5 241q340 0 563 -202t223 -527q0 -238 -117.5 -390.5t-286.5 -152.5q-219 0 -220 238zM985 964q-124 0 -200.5 -118t-76.5 -293
q0 -118 51.5 -186t137.5 -68q124 0 196.5 123.5t72.5 327.5q0 214 -181 214z" />
    <glyph glyph-name="bracketleft" unicode="[" horiz-adv-x="600" 
d="M318 1771v-2032h233v-139h-375v2315h374v-144h-232z" />
    <glyph glyph-name="backslash" unicode="\" horiz-adv-x="776" 
d="M-50 1852l142 45l684 -2132l-140 -44z" />
    <glyph glyph-name="bracketright" unicode="]" horiz-adv-x="600" 
d="M97 1771v144h374v-2315h-375v139h233v2032h-232z" />
    <glyph glyph-name="braceleft" unicode="{" horiz-adv-x="1327" 
d="M915 1825q-79 -31 -124.5 -52.5t-67.5 -51t-27.5 -76.5t-5.5 -128v-522q0 -143 -162 -285q84 -66 123 -173.5t39 -270.5v-401q0 -53 3.5 -86t23 -59t61 -50.5t118.5 -59.5l-58 -124q-93 39 -149.5 74.5t-87.5 85.5t-42 121.5t-11 182.5v417q0 53 -4 88t-21.5 64.5
t-52.5 61t-97 74.5v113q58 41 93 72.5t53 62.5t23.5 67.5t5.5 87.5v546q0 152 80 224q15 12 71.5 43t157.5 81z" />
    <glyph glyph-name="bar" unicode="|" horiz-adv-x="522" 
d="M327 1974v-2312h-142v2312h142z" />
    <glyph glyph-name="braceright" unicode="}" horiz-adv-x="1327" 
d="M940 655q-56 -33 -88.5 -62t-49 -68t-22 -97t-5.5 -149v-326q0 -104 -11.5 -175t-44 -122.5t-90.5 -90.5t-151 -79l-58 124q26 16 60 36.5t66.5 46t57 57t29.5 70.5v431q0 78 2 135.5t7.5 98.5t16.5 71t27.5 55t41.5 48t60 51q-83 65 -119 160t-36 222v528
q-11 50 -26.5 79.5t-42.5 49.5t-66.5 36t-96.5 40l58 127q104 -47 166 -83t82 -61q30 -35 49 -107t19 -178v-520q0 -38 3.5 -64t19.5 -50.5t50 -52t94 -68.5z" />
    <glyph glyph-name="endash" unicode="&#x2013;" horiz-adv-x="921" 
d="M119 549v142h680v-142h-680z" />
    <glyph glyph-name="emdash" unicode="&#x2014;" horiz-adv-x="1346" 
d="M100 860v142h1127v-142h-1127z" />
    <glyph glyph-name="quoteleft" unicode="&#x2018;" horiz-adv-x="548" 
d="M458 1686q-49 -12 -89 -41t-67.5 -65.5t-43.5 -78.5t-16 -81q0 -30 9.5 -56.5t29.5 -45.5t51.5 -31t75.5 -12h19l-38 -120q-70 0 -123 22t-86 59t-49.5 85.5t-16.5 100.5q0 55 17 111.5t51 106t83.5 89t114.5 59.5z" />
    <glyph glyph-name="quoteright" unicode="&#x2019;" horiz-adv-x="548" 
d="M99 1271q49 12 89 40.5t67.5 65.5t43.5 79t16 80q0 31 -9.5 57t-29.5 45.5t-51.5 31t-75.5 11.5h-19l38 121q70 0 123 -22t86 -59t49.5 -85.5t16.5 -100.5q0 -55 -17 -112t-51 -106.5t-83.5 -88.5t-114.5 -60z" />
    <glyph glyph-name="quotedblleft" unicode="&#x201c;" horiz-adv-x="995" 
d="M458 1686q-49 -12 -89 -41t-67.5 -65.5t-43.5 -78.5t-16 -81q0 -30 9.5 -56.5t29.5 -45.5t51.5 -31t75.5 -12h19l-38 -120q-70 0 -123 22t-86 59t-49.5 85.5t-16.5 100.5q0 55 17 111.5t51 106t83.5 89t114.5 59.5zM880 1686q-48 -12 -88.5 -41t-68 -65.5t-43.5 -78.5
t-16 -81q0 -30 9.5 -56.5t30 -45.5t52 -31t74.5 -12h20l-39 -120q-70 0 -123 22t-86 59t-49.5 85.5t-16.5 100.5q0 55 17.5 111.5t51 106t83 89t114.5 59.5z" />
    <glyph glyph-name="quotedblright" unicode="&#x201d;" horiz-adv-x="995" 
d="M99 1271q49 12 89 40.5t67.5 65.5t43.5 79t16 80q0 31 -9.5 57t-29.5 45.5t-51.5 31t-75.5 11.5h-19l38 121q70 0 123 -22t86 -59t49.5 -85.5t16.5 -100.5q0 -55 -17 -112t-51 -106.5t-83.5 -88.5t-114.5 -60zM522 1271q49 12 89 40.5t67.5 65.5t43.5 79t16 80
q0 31 -9.5 57t-29.5 45.5t-51.5 31t-75.5 11.5h-19l38 121q70 0 123 -22t86 -59t49.5 -85.5t16.5 -100.5q0 -55 -17 -112t-51 -106.5t-83.5 -88.5t-114.5 -60z" />
    <glyph glyph-name="ZWNJ" unicode="&#x200c;" horiz-adv-x="0" 
d="M-69 -370v2507h142v-2507h-142z" />
    <glyph glyph-name="ZWJ" unicode="&#x200d;" horiz-adv-x="0" 
d="M428 2493l97 -121l-395 -265l395 -249l-69 -116l-383 240v-2352h-142v2352l-366 -223l-85 119l382 237l-393 265l106 113l420 -290z" />
    <glyph glyph-name="dottedcircle" unicode="&#x25cc;" horiz-adv-x="1261" 
d="M1034 1013q-31 47 -69.5 85.5t-85.5 65.5l86 121q118 -77 188 -190zM738 1230q-27 7 -54 9.5t-56 2.5q-30 0 -57 -2.5t-54 -9.5l-22 144q33 7 66 10.5t67 3.5q33 0 67 -3.5t65 -10.5zM1235 780q0 -31 -4 -65.5t-12 -67.5l-140 25q6 27 8 54t2 54q0 29 -2 56t-8 54l140 25
q16 -71 16 -135zM1153 464q-76 -112 -188 -187l-86 121q47 27 85.5 65.5t69.5 87.5zM377 1164q-49 -27 -86 -65.5t-67 -85.5l-121 82q74 115 190 190zM36 647q-17 64 -17 133q0 70 17 135l144 -25q-7 -27 -9 -54t-2 -56q0 -27 2 -54t9 -54zM760 188q-31 -7 -65 -12t-67 -5
q-34 0 -67 5t-66 12l22 144q27 -7 54 -9t57 -2q29 0 56 2t54 9zM293 277q-113 74 -190 187l121 87q30 -49 67 -87.5t86 -65.5z" />
    <glyph glyph-name="danda" unicode="&#x964;" horiz-adv-x="742" 
d="M531 1422v-1340h-126v1340h126z" />
    <glyph glyph-name="doubledanda" unicode="&#x965;" horiz-adv-x="1013" 
d="M578 188q8 -37 8 -58l-8 -48q-23 -27 -48.5 -41t-56.5 -14q-29 0 -58 19.5t-52.5 50.5t-38.5 69.5t-15 76.5v1089q-3 -14 -17 -20.5t-36 -6.5q-101 0 -101 111q0 101 111 101q27 0 57.5 -21.5t56.5 -55t43 -75t17 -80.5v-1072q7 15 15 22.5t31 7.5q51 0 92 -55zM910 143
q0 -88 -111 -88q-31 0 -59.5 23t-52 57.5t-38.5 73.5t-16 73v1048q-12 -16 -47 -16q-100 0 -100 118q0 98 108 98q28 0 57 -22.5t53.5 -56.5t40 -73.5t18.5 -74.5v-1052q4 11 16 15.5t31 4.5q100 0 100 -128z" />
    <glyph glyph-name="bn_candrabindu" unicode="&#x981;" horiz-adv-x="3" 
d="M-108 2112q-24 -108 -56 -170t-80 -104t-104.5 -61t-110.5 -19q-66 0 -133.5 25t-129.5 109t-90 228l123 16q17 -104 60 -162.5t86 -74t89 -11.5q174 4 218 248zM-552 2087q0 41 28.5 69.5t69.5 28.5t69.5 -28.5t28.5 -69.5t-28.5 -69.5t-69.5 -28.5t-69.5 28.5
t-28.5 69.5z" />
    <glyph glyph-name="bn_anusvara" unicode="&#x982;" horiz-adv-x="810" 
d="M417 961q-69 0 -127.5 25t-102 68.5t-67.5 102t-24 125.5q0 119 71 182t189 63q69 0 130 -23.5t106 -65.5t71.5 -100t26.5 -127q0 -123 -73.5 -186.5t-199.5 -63.5zM814 2l-759 739l116 116l754 -734zM548 1216q0 76 -48.5 122.5t-122.5 46.5q-139 0 -139 -116
q0 -35 15.5 -65t40.5 -52.5t57 -35.5t66 -13q131 0 131 113z" />
    <glyph glyph-name="bn_visarga" unicode="&#x983;" horiz-adv-x="730" 
d="M385 853q-68 0 -122 21.5t-91.5 61t-58 96t-20.5 126.5q0 50 25 94t64 77.5t88.5 53.5t96.5 20q53 0 101 -24.5t85 -63.5t59 -87.5t22 -98.5t-19.5 -99.5t-53 -88.5t-79.5 -63.5t-97 -24.5zM493 1131q0 26 -9 49.5t-23.5 41t-36.5 28.5t-47 11q-142 0 -142 -155
q0 -25 14 -45t35 -35t44 -23t42 -8q26 0 48.5 11.5t39 30.5t26 43t9.5 51zM385 132q-66 0 -120 21.5t-92 61.5t-59 96t-21 126q0 50 24.5 94.5t63.5 78t87.5 52t98.5 18.5q54 0 102.5 -23t85 -60.5t58 -87.5t21.5 -103q0 -50 -19.5 -98.5t-53 -87.5t-79.5 -63.5t-97 -24.5z
M493 409q0 26 -9 49.5t-23.5 41t-36.5 28.5t-47 11q-142 0 -142 -154q0 -22 15 -42t35 -35t43 -24.5t39 -9.5q26 0 49 11.5t40.5 30.5t27 43t9.5 50z" />
    <glyph glyph-name="bn_a" unicode="&#x985;" horiz-adv-x="1791" 
d="M1222 602q-145 -202 -328 -202q-111 0 -204 36.5t-170 99t-138.5 148t-109.5 183.5t-82.5 204t-57.5 211l142 45q18 -82 45.5 -172.5t67.5 -177.5t90 -166t112 -139t135 -95.5t158 -35.5q58 0 106.5 24t83 64.5t54 93t19.5 111.5q0 53 -23 110.5t-62 105.5t-91 78
t-109 30q-54 0 -93 -40.5t-62 -125.5l-130 29q55 279 285 279q81 0 158 -41t136.5 -106t96 -146t36.5 -161q0 -18 -3 -37t-7 -38l172 -251v881h-1473v142h1820v-142h-206v-1401h-141v254z" />
    <glyph glyph-name="bn_aa" unicode="&#x986;" horiz-adv-x="2315" 
d="M1232 602q-145 -202 -328 -202q-111 0 -204 36.5t-170 99t-138.5 148t-109.5 183.5t-82.5 204t-57.5 211l142 45q18 -82 45.5 -172.5t67.5 -177.5t90 -166t112 -139t135 -95.5t158 -35.5q58 0 106.5 24t83 64.5t54 93t19.5 111.5q0 53 -23 110.5t-62 105.5t-91 78
t-109 30q-54 0 -93 -40.5t-62 -125.5l-130 29q55 279 285 279q81 0 158 -41t136.5 -106t96 -146t36.5 -161q0 -18 -3 -37t-7 -38l172 -251v881h-1473v142h1836q20 -13 37.5 -26t36 -30.5t39.5 -41t46 -57.5v367h142v-212h204v-142h-204v-1401h-142v1197q-27 73 -79.5 127
t-123.5 77h-178v-1401h-141v254z" />
    <glyph glyph-name="bn_i" unicode="&#x987;" horiz-adv-x="1353" 
d="M1262 -138q-95 87 -178 160.5t-163 136t-160 116.5t-166.5 101.5t-183 90t-208.5 81.5l-83 170q47 -13 101 -29.5t109.5 -30.5t108 -23.5t96.5 -9.5q67 0 135 17t122.5 52t89 88.5t34.5 124.5q0 54 -18 104t-52 87t-80.5 59.5t-103.5 22.5q-55 0 -98 -21t-76.5 -52
t-55.5 -67.5t-34 -68.5l-142 50q9 56 50.5 110t97.5 96.5t120.5 68.5t121.5 26h3q86 -2 161 -36.5t130.5 -93t86.5 -135t31 -161.5q0 -152 -98.5 -249.5t-294.5 -142.5q228 -115 680 -549zM1386 1401h-1404v142h952q29 47 29 88q0 31 -17.5 54t-49 37.5t-75.5 22t-95 7.5
q-46 0 -95.5 -4t-98.5 -8t-95.5 -8t-87.5 -4l-48 3q-77 0 -142 21t-113 58t-74.5 87t-26.5 108q0 35 10.5 80t29.5 99l132 -44q-32 -96 -32 -127q0 -84 69.5 -114.5t212.5 -30.5q43 0 90 4.5t96 9t96.5 8.5t95.5 4q74 0 139.5 -16t113.5 -47t75.5 -77t27.5 -106
q0 -25 -5.5 -51.5t-13.5 -53.5h304v-142z" />
    <glyph glyph-name="bn_ii" unicode="&#x988;" horiz-adv-x="1466" 
d="M-29 1401v142h1180q0 76 -22.5 112.5t-67.5 50.5q-14 7 -58.5 8.5t-121.5 1.5h-498q-95 0 -157.5 14t-100.5 48t-53.5 89t-15.5 138q0 27 1.5 62.5t4.5 66.5h116q-3 -15 -3 -40v-60q0 -56 13 -90.5t37 -54t58 -25.5t76 -6q118 0 212.5 1t169.5 2.5t131 3t100 1.5
q79 0 136 -17t92.5 -55t52.5 -99.5t17 -151.5h258v-142h-1557zM1295 1087q-101 -149 -148 -293.5t-47 -289.5q0 -118 27 -234.5t85 -235.5l-127 -61q-39 90 -63.5 171t-38.5 155.5t-19.5 144.5t-5.5 139q0 159 143 438q-32 -21 -70 -58t-76.5 -81t-75.5 -92t-69 -90.5
t-56 -74t-36 -45.5q-73 -76 -134.5 -115.5t-120.5 -39.5q-192 0 -291 277l142 47q0 -20 14 -50.5t36 -60t48 -50.5t51 -21q43 0 109 62t151 189v16q0 57 -19 115.5t-55.5 106.5t-89 79t-118.5 31q-31 0 -56 -10t-42.5 -27t-27 -38.5t-9.5 -45.5q0 -20 8 -42l-142 58
q0 53 20.5 97.5t56 77t83.5 51t104 21.5h18q79 0 149.5 -35.5t126 -86.5t90.5 -108t43 -99q34 47 77.5 87.5t92.5 69.5t102.5 45t110.5 16z" />
    <glyph glyph-name="bn_u" unicode="&#x989;" horiz-adv-x="1559" 
d="M780 918q0 -113 79 -113q18 0 43 19.5t52.5 50t56.5 68t54.5 74.5t45.5 69t30 51q65 -27 111.5 -70.5t77.5 -97.5t46 -115.5t15 -125.5q0 -125 -37 -226.5t-104 -174.5t-160 -113.5t-204 -40.5q-120 0 -218.5 50.5t-176 137t-136.5 200t-115 270.5t-92 413l136 20
q6 -73 28 -171.5t59 -204t88.5 -208t115 -184.5t136.5 -131.5t154 -49.5q83 0 154 33t122.5 87.5t79.5 124.5t28 145q0 56 -17.5 112t-55.5 106q-58 -67 -92 -109.5t-65.5 -70.5t-65 -49.5t-102.5 -29.5q-46 0 -85 20.5t-67.5 55t-44.5 77.5t-16 90v494h-670v142h1181
q3 11 3 22v25q0 43 -13.5 72.5t-46.5 47t-91 25t-147 7.5l-282 -23q-230 0 -343.5 72t-113.5 211q0 50 50 182l125 -47l-37 -135q7 -43 26.5 -70.5t64 -43.5t120 -22t193.5 -6l316 23q75 0 133 -24t98 -68.5t61 -107.5t22 -140h285v-142h-792v-483z" />
    <glyph glyph-name="bn_uu" unicode="&#x98a;" horiz-adv-x="1596" 
d="M1607 1401h-712v-467q0 -93 50 -93q137 0 314 309q54 -35 97 -87t73 -114.5t45.5 -134.5t15.5 -144q0 -121 -42 -212.5t-117 -153.5t-179 -94.5t-228 -32.5q-121 0 -227 52t-194 139.5t-156 201.5t-115.5 238t-73.5 248.5t-34 155.5l146 23q26 -196 77 -348.5t124 -261.5
q-127 359 -143 555l143 26q12 -113 34 -228t50.5 -218t61.5 -184.5t67 -127.5q98 -129 282 -129q82 0 151.5 31.5t121 85t80.5 125t29 152.5q0 143 -86 213q-85 -119 -169 -174t-169 -55q-32 0 -63 24t-55.5 60t-38.5 75t-14 67v478h-776v142h1221q3 19 4.5 34t1.5 27
q0 47 -13 76t-45.5 44.5t-87.5 21t-142 6.5l-282 -21q-230 0 -343 71.5t-113 210.5q0 47 50 182l124 -47l-35 -135q5 -43 24.5 -71t64 -43.5t120.5 -21.5t194 -6l315 23q152 0 234 -91t82 -260h256v-142z" />
    <glyph glyph-name="bn_ri" unicode="&#x98b;" horiz-adv-x="1712" 
d="M947 1192q-133 -55 -259.5 -121.5t-235.5 -149.5q70 -43 121.5 -74.5t92 -55.5t72.5 -45.5t64 -47.5t66.5 -59t78.5 -80v633zM947 0v321q-138 265 -598 481l-98 155q135 97 280.5 182t304.5 161q-16 19 -35 42.5t-39 46t-43 38.5t-49 22q-24 -38 -66 -74.5t-91 -65
t-101.5 -46t-97.5 -17.5q-42 0 -82.5 15t-72 40.5t-51 60.5t-19.5 76q0 104 94 150l100 -79q-22 -15 -37.5 -31t-15.5 -35q8 -40 28 -47.5t43 -7.5q40 0 90.5 26t100 64t92 81t65.5 77q36 -9 78.5 -39t84.5 -69t78 -81.5t57 -74.5v399h142v-846q171 -93 276 -230v1076h142
v-228h222v-142h-222v-1401h-142v293q0 78 -8 139t-33 115t-92.5 121.5t-142.5 94.5v-763h-142z" />
    <glyph glyph-name="bn_li" unicode="&#x98c;" horiz-adv-x="1359" 
d="M844 309q23 3 57.5 13.5t73.5 31t77.5 49t69.5 65.5t50.5 82t19.5 99q0 85 -29 148.5t-77.5 111t-112.5 81t-134 60.5t-142.5 48.5t-137.5 46.5q-378 136 -378 343q0 127 193 262l76 -104q-66 -42 -96.5 -79t-30.5 -71q0 -61 62 -113t193 -96q201 -69 322.5 -117
t165.5 -75q130 -81 199 -191t69 -255q0 -124 -61.5 -218t-158.5 -157t-216.5 -95t-235.5 -32q-127 0 -238 38l83 116l63 -13q72 17 120 58t77 90t41 95.5t12 74.5q0 37 -13.5 80t-40 79.5t-64 60.5t-87.5 24q-42 0 -78 -18t-63 -46.5t-42.5 -64t-15.5 -69.5q0 -39 19 -70
t69 -54l-105 -91q-62 31 -93.5 90t-31.5 125q0 80 30.5 143.5t78.5 107t107.5 66.5t116.5 23q83 0 149.5 -29t111.5 -80t69.5 -120t24.5 -149q0 -74 -14.5 -122t-33.5 -80.5t-38.5 -55.5t-31.5 -47z" />
    <glyph glyph-name="bn_e" unicode="&#x98f;" horiz-adv-x="1643" 
d="M1442 0h-141q-3 105 -27.5 176.5t-73 115.5t-122.5 63.5t-176 19.5q-17 0 -52 -2.5t-77.5 -5.5t-86.5 -5.5t-79 -2.5q-123 0 -209 26.5t-140.5 82.5t-79.5 143.5t-25 209.5q0 88 19 169t50 157l122 -66q-27 -95 -38.5 -173.5t-11.5 -139.5q0 -75 19.5 -126.5t64.5 -82.5
t118.5 -44.5t181.5 -13.5q80 0 155.5 9.5t151.5 9.5q81 0 162.5 -24.5t153.5 -94.5v937q0 21 -11 39.5t-28.5 31.5t-38.5 20t-41 7q-28 0 -70.5 -23.5t-90.5 -60.5t-97 -83.5t-87.5 -94t-62.5 -90.5t-24 -71q0 -56 55 -56q23 0 50 14l61 -103q-64 -45 -124 -45
q-39 0 -71.5 15t-55.5 40t-36.5 59t-13.5 73q0 51 27.5 113t73 125.5t105.5 123t124 105.5t128 73.5t120 27.5q46 0 90.5 -17t79.5 -46.5t57 -68.5t22 -85v-1361z" />
    <glyph glyph-name="bn_ai" unicode="&#x990;" horiz-adv-x="1776" 
d="M1285 0q0 159 -61.5 249t-210.5 113q-29 5 -60 10.5t-69 5.5q-73 0 -150.5 -8t-140.5 -8q-124 0 -211 25.5t-141.5 81.5t-79 143t-24.5 209q0 88 17 169t52 157l122 -66q-27 -95 -38.5 -173.5t-11.5 -139.5q0 -69 17.5 -119t56 -82t99 -47.5t148.5 -15.5h61q81 0 157 8
t152 8q84 0 161.5 -23t154.5 -96v940q0 21 -11 38.5t-28.5 30.5t-38.5 19.5t-41 6.5q-28 0 -70 -23t-90 -60t-96 -83.5t-85.5 -93t-62 -90.5t-24.5 -73q0 -22 17 -33.5t37 -11.5q12 0 24 6t20 13l64 -119q-31 -23 -64 -32.5t-68 -9.5q-40 0 -71 14.5t-54 40t-35 60t-12 74.5
q0 51 28.5 113.5t75.5 124.5t108 120.5t126 104t127.5 73t115.5 27.5q118 0 183.5 -72t65.5 -224q0 -27 -4 -60q57 25 80 69.5t23 109.5q0 162 -255 266l-478 158q-127 57 -187.5 131t-60.5 168q0 33 4 57t21.5 48t53 56.5t100.5 83.5l78 -113q-60 -35 -88 -67.5t-28 -59.5
q0 -68 61 -118.5t188 -90.5q216 -69 338 -107t140 -46q126 -65 190.5 -156.5t64.5 -214.5q0 -119 -60 -206.5t-182 -144.5v-1045h-140z" />
    <glyph glyph-name="bn_o" unicode="&#x993;" horiz-adv-x="1541" 
d="M1288 865q38 -39 64.5 -71.5t42.5 -66t23 -71.5t7 -86q0 -83 -30.5 -155t-82.5 -126t-122.5 -85t-149.5 -31q-193 0 -348.5 100.5t-282.5 298.5q-129 197 -316 728l142 43q30 -115 74.5 -235.5t100 -234.5t123 -216t143 -177.5t160 -120t175.5 -44.5q65 0 115 21.5
t85 56.5t53.5 81.5t18.5 97.5q0 62 -28 124.5t-86 116.5q-79 -25 -171 -33l-28 138q307 0 307 259q0 42 -20.5 73.5t-56 53.5t-81 32t-97.5 10q-50 0 -109.5 -19.5t-111 -50t-87 -67.5t-35.5 -72q0 -44 28 -79.5t88 -62.5l-55 -127q-201 91 -201 269q0 69 46.5 132t120 112
t162.5 78t175 29q187 0 281.5 -85t94.5 -258q0 -92 -33 -162t-98 -118z" />
    <glyph glyph-name="bn_au" unicode="&#x994;" horiz-adv-x="1721" 
d="M1292 857q63 -56 93 -128t30 -159q0 -83 -30.5 -155t-82.5 -126t-122.5 -85t-149.5 -31q-195 0 -349.5 100.5t-281.5 298.5q-129 197 -316 728l142 43q22 -92 48 -171.5t52.5 -146t53 -121.5t47.5 -99q64 -129 138 -221.5t149.5 -151.5t150 -88t137.5 -29q65 0 115 20.5
t85 56t53.5 81t18.5 97.5q0 60 -28 123t-86 120q-79 -25 -171 -33l-28 138q83 0 142 15.5t95.5 47.5t53 81t16.5 118q0 90 -68 128t-206 38q-48 0 -105 -20.5t-105 -51.5t-80 -68t-32 -69q0 -44 27 -79.5t87 -62.5l-55 -127q-201 91 -201 269q0 69 46.5 132t120 112
t162.5 78t175 29q83 0 152.5 -22t119 -62.5t77 -99t27.5 -132.5q0 -15 -4 -32t-10 -34.5t-13.5 -33.5t-12.5 -30q149 29 149 238q0 85 -29 147.5t-78 109.5t-113 80t-135 59t-143.5 48t-136.5 46q-189 69 -283 156t-94 192q0 126 194 262l80 -104q-132 -84 -132 -150
q0 -61 62.5 -112.5t193.5 -96.5q201 -69 322.5 -117t165.5 -75q131 -81 199.5 -191t68.5 -254q0 -83 -27.5 -152.5t-77 -124t-117 -92.5t-146.5 -54z" />
    <glyph glyph-name="bn_ka" unicode="&#x995;" horiz-adv-x="1708" 
d="M910 1133q-23 -3 -68.5 -18.5t-102.5 -39t-118.5 -52.5t-115.5 -57.5t-93.5 -54t-54.5 -43.5q46 -9 99 -30t108 -51t108 -67t100 -77.5t82.5 -83t55.5 -84.5v658zM1052 1274q108 -10 206 -50.5t173 -107t118.5 -157t43.5 -202.5q0 -46 -16.5 -95t-46.5 -90t-71 -67.5
t-90 -26.5q-39 0 -101.5 24t-122.5 78l88 108q77 -68 116 -68q24 0 44 14.5t32.5 37.5t19.5 49.5t7 49.5q0 74 -35.5 140t-92 115.5t-126.5 78t-139 28.5h-7v-1133h-142v243q-16 46 -55 100.5t-93 110.5t-119 109t-131.5 93.5t-133 70.5t-156.5 17l-73 150
q182 143 374.5 236t386.5 144v127h-975v142h1785v-142h-668v-127z" />
    <glyph glyph-name="bn_kha" unicode="&#x996;" horiz-adv-x="1367" 
d="M1026 227q-19 46 -64.5 100t-106 108.5t-131.5 106.5t-142 94t-136.5 69.5t-113.5 32.5l-56 135q42 5 92 17t101.5 31t100 45t85.5 59t60 73t23 86q0 73 -74 143q-31 -62 -61.5 -110t-67.5 -81t-85.5 -52t-114.5 -23q-49 0 -92 15t-75.5 41t-51.5 63.5t-19 83.5
q0 99 61 171l110 -63q-20 -30 -24.5 -56.5t-4.5 -41.5q0 -6 6 -17.5t18 -24t31 -21t45 -8.5q31 0 58 9.5t56.5 42.5t65.5 95.5t84 169.5q49 -20 98 -57t89 -85t65 -103t25 -109q0 -64 -31 -123.5t-79.5 -108t-109.5 -82t-120 -45.5q110 -42 230.5 -128t255.5 -217v1309h141
v-228h233v-142h-233v-1401h-141v227z" />
    <glyph glyph-name="bn_ga" unicode="&#x997;" horiz-adv-x="1414" 
d="M1435 1543v-142h-221v-1401h-142v981q-233 428 -498 428q-46 0 -96 -20t-91.5 -54.5t-68.5 -79t-27 -94.5q0 -45 29 -45q18 0 55.5 11.5t79 25t78.5 25t53 11.5q45 0 84 -14t68.5 -41t46.5 -65.5t17 -87.5q0 -37 -25.5 -81.5t-68 -94.5t-98 -105t-116.5 -111l-116 89
q91 86 145.5 144t85 93t40.5 53.5t11 26.5q0 38 -22.5 52t-66.5 14q-8 0 -43 -13.5t-77.5 -29.5t-83 -29.5t-58.5 -13.5q-37 0 -67 14.5t-51 39t-31.5 57.5t-10.5 70q0 78 35.5 150t94.5 126t136 86.5t159 32.5q89 0 156.5 -21.5t125 -64t109.5 -108t107 -151.5v566h142
v-229h221z" />
    <glyph glyph-name="bn_gha" unicode="&#x998;" horiz-adv-x="1328" 
d="M298 752l216 227q-13 -3 -25.5 -4.5t-24.5 -1.5q-60 0 -114.5 22.5t-97 60t-67.5 87.5t-25 107q0 38 11.5 75.5t38.5 75.5h-219v142h1354v-142h-217v-1401h-142v180q-39 90 -104.5 167t-150.5 136.5t-184.5 100t-204.5 57.5zM372 1401q-39 -35 -54.5 -68t-15.5 -64
q0 -38 22 -66.5t57 -48t80.5 -29.5t91.5 -10q59 0 102.5 18.5t90.5 69.5l90 -100q-85 -81 -174 -168t-182 -183q93 -35 160 -63.5t121.5 -63.5t107 -82.5t117.5 -117.5v976h-614z" />
    <glyph glyph-name="bn_nga" unicode="&#x999;" horiz-adv-x="1381" 
d="M613 1095q69 -37 169 -37q52 0 95 9t74 27t48.5 46t17.5 66v8q-3 54 -46.5 79.5t-105.5 25.5q-42 0 -86.5 -18.5t-81 -48.5t-60.5 -70.5t-24 -86.5zM865 1446q50 0 102.5 -15.5t95 -45.5t69.5 -73t27 -98q0 -65 -34.5 -115.5t-87 -86t-116 -54t-123.5 -18.5
q-64 0 -110 10.5t-85 33.5q-3 -27 -4.5 -60t-1.5 -59q0 -42 5.5 -84.5t21.5 -76.5t44.5 -56.5t74.5 -22.5q37 0 76 25t72 62t56 80.5t28 80.5l111 21q53 -35 92 -80.5t65.5 -99t40 -111.5t13.5 -117q0 -86 -28 -171t-84.5 -153.5t-141.5 -111t-200 -42.5q-126 0 -227.5 52
t-182 139t-140 200t-102 235t-69 245t-38.5 229l142 29q20 -161 47 -275t54 -187q33 -89 82 -182t114.5 -169.5t146.5 -125t178 -48.5q144 0 225.5 83.5t81.5 233.5q0 131 -103 255q-13 -44 -43 -87.5t-69 -77t-85.5 -54t-92.5 -20.5q-154 0 -230 104t-76 307q0 67 8 159
q-57 46 -123 124t-146 189l111 85q82 -177 189 -279q16 56 53.5 106t88.5 87.5t109.5 59t118.5 21.5z" />
    <glyph glyph-name="bn_ca" unicode="&#x99a;" horiz-adv-x="1232" 
d="M383 1233q50 -65 87 -106.5t76.5 -67t91.5 -39.5t133 -25q73 -11 123.5 -23t77.5 -27q43 -27 76 -73t33 -115q0 -109 -71.5 -231t-198.5 -257q-123 -131 -234 -197.5t-207 -66.5h-6q-39 23 -69.5 49.5t-53.5 53.5v1293h-272v142h1271v-142h-857v-168zM383 147
q65 0 146 58t192 177q218 235 218 370q0 61 -100 92q-56 13 -121 28t-126.5 36t-116 50.5t-92.5 75.5v-887z" />
    <glyph glyph-name="bn_cha" unicode="&#x99b;" horiz-adv-x="1312" 
d="M334 796q19 -31 36.5 -47t43.5 -16q39 0 85 29.5t86 73t67 91.5t27 86q0 44 -45 48h-77q-138 0 -223 105v-370zM750 340q84 -31 144.5 -58.5t110 -56t91.5 -59.5t87 -70t99 -89t127 -115l-95 -100q-87 101 -206 192.5t-254 159t-276.5 107t-291.5 39.5v142h197
q112 0 214.5 33t181.5 87.5t126.5 125.5t47.5 145q0 45 -7.5 76t-27 53.5t-53 37t-84.5 27.5l-58 8q-8 -80 -46 -157t-94.5 -139t-128 -100t-145.5 -38q-40 0 -78.5 17t-68.5 44t-49.5 61t-19.5 67v621h-211v142h1346v-142h-994v-58q35 -56 73.5 -91.5t86.5 -54.5
q29 -2 74.5 -9t95.5 -15t99 -14t87 -6q12 0 24 1.5t21 3.5q62 0 116.5 -29t95 -79t64 -116t23.5 -140q0 -69 -35 -137t-95.5 -128.5t-141.5 -109.5t-172 -79z" />
    <glyph glyph-name="bn_ja" unicode="&#x99c;" horiz-adv-x="1704" 
d="M836 1407q33 -83 77 -135t98.5 -81t118.5 -39t137 -10q42 0 91.5 2t124.5 9l69 -92q-31 -92 -56 -171t-42.5 -150.5t-27 -139t-9.5 -136.5q0 -93 18 -196t62 -234l-133 -42q-42 135 -65.5 260.5t-23.5 248.5q0 127 21 245.5t76 253.5q-114 0 -200 6.5t-148.5 21t-108 38
t-80 58t-62.5 80.5t-58 107q-42 -20 -74.5 -54.5t-55.5 -76t-35 -88t-12 -92.5q0 -33 11.5 -65t32 -56t48 -38.5t59.5 -14.5q116 0 169 95l103 21q60 -52 97.5 -90t57.5 -71t27 -68t7 -83q0 -79 -34.5 -152.5t-91.5 -129.5t-131 -89.5t-154 -33.5q-202 0 -364 187
q-61 69 -110.5 142.5t-83.5 170t-53 226.5t-19 313h142q0 -50 0.5 -92.5t2.5 -83t5.5 -79t8.5 -80.5q15 -111 62 -213t112 -179.5t142 -123.5t153 -46q50 0 99 21.5t87 57.5t61.5 82.5t23.5 96.5q0 100 -78 166q-52 -51 -112.5 -79t-133.5 -28q-62 0 -114.5 26.5t-91 70.5
t-60.5 100.5t-22 116.5q0 268 208 403h-633v142h1752v-142h-887v6z" />
    <glyph glyph-name="bn_jha" unicode="&#x99d;" horiz-adv-x="1603" 
d="M882 1141q-23 -2 -69 -18t-103.5 -40.5t-120 -54t-117.5 -59t-95.5 -55.5t-55.5 -43q46 -10 100 -31t110 -50.5t110 -66.5t100.5 -77.5t83 -83t57.5 -84.5v663zM1261 155v112q-119 180 -238 227v-494h-141v243q-22 51 -64 109t-96.5 114t-118.5 107t-129 89.5
t-127.5 61.5t-114.5 23h-16t-16 -3l-73 150q159 137 347.5 233.5t407.5 154.5v119h-901v142h1042v-877q114 -42 238 -196v1301h142v-228h237v-142h-237v-1246h-142z" />
    <glyph glyph-name="bn_nya" unicode="&#x99e;" horiz-adv-x="2227" 
d="M1397 728q37 -44 91 -96.5t115.5 -98.5t123.5 -77t114 -31q76 0 104.5 33t28.5 114q0 53 -21.5 93t-56 67t-78.5 40.5t-87 13.5q-29 0 -57 -3t-51 -9v141q25 -6 50 -7t52 -1q46 0 88.5 11t75.5 34.5t53.5 58.5t20.5 84q0 30 -12 57.5t-33 49t-49 34.5t-57 13
q-76 0 -178 -82t-237 -249v-190zM2115 570q0 -143 -72.5 -215t-211.5 -72q-56 0 -118 24.5t-121.5 63.5t-110.5 87t-84 95v-553h-141q0 217 -103 296q-27 20 -79.5 31.5t-119 17.5t-141.5 7.5t-146 1.5h-200q-100 5 -166.5 41.5t-106.5 96t-56 137.5t-16 170q0 93 17.5 185
t48.5 163l131 -28q-35 -115 -45.5 -201t-10.5 -150q0 -69 14.5 -119.5t49.5 -85t93.5 -51.5t149.5 -17q19 0 71.5 1t115 2.5t123 2t93.5 0.5q161 0 283 -97v937q0 13 -7 30t-18 31t-23.5 23.5t-26.5 9.5q-25 0 -47.5 -2t-44.5 -9q-25 -7 -61.5 -31.5t-77 -60.5t-80.5 -78
t-71.5 -84.5t-51 -80t-19.5 -63.5q0 -27 12 -50.5t43 -23.5q59 0 93 46l95 -99q-98 -89 -188 -89q-43 0 -79 16t-62 44t-41 65t-15 80q0 49 27.5 109t73.5 122t105 121.5t120 105.5t121.5 74t108.5 28q73 0 121.5 -17.5t78.5 -66.5t42.5 -137t12.5 -228q83 82 139.5 134
t101 81t85 39t91.5 10q61 0 114 -22.5t92.5 -63t62 -94.5t22.5 -115q0 -143 -122 -249q65 -71 98.5 -139t33.5 -137z" />
    <glyph glyph-name="bn_tta" unicode="&#x99f;" horiz-adv-x="1196" 
d="M373 443q-1 -74 22 -111t62 -37q54 0 107.5 25t102 67.5t90.5 99t73 120.5t48.5 131.5t17.5 131.5q0 100 -82 100q-38 0 -108 -45l-83 93q104 84 196 84q46 0 86 -17.5t69.5 -49t46.5 -77t17 -99.5q0 -78 -23 -161t-63 -161.5t-95 -148t-119.5 -122t-135 -83
t-142.5 -30.5q-54 0 -96.5 21t-72 58.5t-45 89.5t-15.5 113v966h-267v142h950q6 20 9.5 39t3.5 35q0 73 -63.5 107t-187.5 36l-426 -31q-69 0 -130.5 22.5t-107.5 62.5t-73 95t-27 123q0 85 92 200l116 -81q-66 -87 -66 -152q0 -128 267 -128l424 31q74 0 135 -25.5
t103.5 -71t66 -109t23.5 -137.5v-16h131v-142h-831v-958z" />
    <glyph glyph-name="bn_ttha" unicode="&#x9a0;" horiz-adv-x="1190" 
d="M722 1129q0 -112 -35 -219.5t-96.5 -198t-146.5 -156t-185 -93.5q0 -312 283 -312q72 0 135 44t110 115.5t74 162.5t27 185q0 234 -166 472zM714 1401q84 -129 137 -221.5t80 -150.5q45 -97 72 -202.5t27 -220.5q0 -106 -40 -213t-107 -192.5t-154 -139t-181 -53.5
q-96 0 -175 32.5t-135.5 90t-88.5 137.5t-32 178q0 54 14.5 81.5t39 44.5t59 31.5t75.5 43.5q81 55 133.5 107t83 117t42.5 149t12 204q0 52 -8 97t-23 80h-559v142h477q-111 131 -166.5 241.5t-55.5 212.5q0 163 149 359l105 -77q-42 -56 -64 -93.5t-33 -64.5t-13 -48
t-2 -41q0 -53 11 -101.5t40.5 -104t81.5 -123.5t134 -160h547v-142h-483z" />
    <glyph glyph-name="bn_dda" unicode="&#x9a1;" horiz-adv-x="1545" 
d="M775 860q0 -31 11 -46t38 -15q22 0 54.5 17.5t70 45.5t76 62.5t71.5 68t58 64t35 49.5q94 -62 151 -171.5t57 -264.5q0 -102 -42.5 -193.5t-115.5 -161t-171.5 -110t-210.5 -40.5q-132 0 -232.5 51t-175 137.5t-125.5 199.5t-87 237.5t-58.5 249t-38.5 228.5l141 17
q32 -254 90 -438t135 -304t168 -178.5t191 -58.5q76 0 147 34t125 88.5t86.5 125.5t32.5 145q0 57 -18.5 109.5t-53.5 104.5q-27 -42 -71.5 -87.5t-98.5 -82.5t-110 -61.5t-105 -24.5q-29 0 -59 19t-53.5 47.5t-38.5 61.5t-15 61v555h-691v142h1609v-142h-776v-541z" />
    <glyph glyph-name="bn_ddha" unicode="&#x9a2;" horiz-adv-x="1226" 
d="M1237 1401h-832v-1103q0 -44 4 -71t13.5 -42.5t25.5 -22.5t42 -12q55 5 110 35.5t103.5 77t89.5 106.5t71.5 127.5t47.5 138.5t17 139q0 105 -83 105q-18 0 -45 -11t-61 -48l-84 109q116 92 201 92q42 0 81 -24t68.5 -60.5t47 -81.5t17.5 -87q0 -82 -23 -170.5
t-63.5 -173t-96 -160t-119.5 -133t-134.5 -90.5t-141.5 -33q-54 0 -96.5 21t-72.5 59t-45.5 90t-15.5 112v1111h-292v142h1266v-142z" />
    <glyph glyph-name="bn_nna" unicode="&#x9a3;" horiz-adv-x="1328" 
d="M517 705q-8 -3 -17 -3h-19q-60 0 -115.5 38.5t-98 95t-68 123t-25.5 122.5q0 83 30.5 164.5t84 146.5t128 105.5t163.5 40.5q127 0 226 -70.5t178 -209.5v513h142v-228h262v-142h-262v-1401h-142v948q0 39 -16 87t-43 98t-62 97t-73.5 84t-78 59.5t-72.5 22.5
q-72 0 -131.5 -21t-102 -61t-66 -97t-23.5 -130q0 -38 15.5 -82t43 -81.5t63.5 -63.5t76 -26q26 0 50 12z" />
    <glyph glyph-name="bn_ta" unicode="&#x9a4;" horiz-adv-x="1610" 
d="M-72 1401v142h1743v-142h-1743zM634 810q-29 57 -43.5 108t-14.5 95q0 60 28 113.5t75.5 93.5t112.5 62.5t141 22.5q117 0 207.5 -52.5t151 -138t92 -193.5t31.5 -219q0 -113 -32.5 -220.5t-97 -191t-161 -135t-222.5 -51.5q-141 0 -244 46t-177.5 125t-125 183.5
t-85.5 221t-66.5 258.5t-51.5 266l145 23l13 -77q18 -100 38 -206t48.5 -206.5t69 -190t98 -156.5t135 -106t181.5 -39q101 0 175.5 39t123 103t71.5 146t23 168q0 85 -22.5 168t-65.5 148t-106.5 105.5t-145.5 40.5q-40 0 -77.5 -13.5t-68.5 -38.5t-50 -59.5t-19 -76.5
q0 -19 8.5 -43t27.5 -54z" />
    <glyph glyph-name="bn_tha" unicode="&#x9a5;" horiz-adv-x="1371" 
d="M1171 1771v-228h224v-142h-224v-1401h-141v202q-100 110 -181 193t-165 143t-180.5 98t-267.5 68l-40 169q134 0 249 28.5t182.5 68.5t95 93t27.5 126q0 53 -23 92t-60 65.5t-84.5 39.5t-96.5 13q-45 0 -91.5 -13t-84.5 -36.5t-62 -54.5t-24 -68q0 -42 19.5 -63.5
t47.5 -21.5q7 0 16.5 1.5t17.5 3.5v-141q-11 -3 -23 -3h-22q-40 0 -76 15.5t-63.5 44t-43 67.5t-15.5 86q0 80 37 141.5t96.5 102.5t132.5 62t146 21q74 0 145.5 -23t127.5 -69.5t90.5 -116.5t34.5 -165q0 -66 -32 -131.5t-83 -119.5t-114.5 -92t-127.5 -50
q142 -54 266.5 -143t228.5 -216v1354h141z" />
    <glyph glyph-name="bn_da" unicode="&#x9a6;" horiz-adv-x="1229" 
d="M337 1401v-646q142 185 312.5 287.5t380.5 121.5l121 -91q-69 -123 -97 -270t-28 -302q0 -123 15.5 -245t42.5 -237l-131 -24q-35 109 -52 232.5t-17 250.5q0 135 19 267.5t58 254.5q-181 -23 -333.5 -156.5t-291.5 -351.5l-141 107v802h-218v142h1266v-142h-906z" />
    <glyph glyph-name="bn_dha" unicode="&#x9a7;" horiz-adv-x="1271" 
d="M927 1174q-328 -159 -570 -367q72 -35 126 -62.5t97 -52t81 -49.5t77 -54.5t84.5 -68t104.5 -89.5v743zM927 1338v205h369v-142h-227v-1401h-142v238q-92 90 -169.5 161t-157.5 127t-170.5 99t-207.5 77l-78 113l311 253q-261 61 -261 254q0 48 18.5 92t50.5 76.5
t74.5 52t91.5 19.5q117 0 197 -155l-108 -69q-15 35 -39 58.5t-63 23.5q-21 0 -35.5 -10t-25 -25.5t-15 -32.5t-4.5 -30q0 -37 21.5 -63t58 -46t82.5 -34.5t94 -28.5z" />
    <glyph glyph-name="bn_na" unicode="&#x9a8;" horiz-adv-x="1343" 
d="M324 364q-76 53 -110 130.5t-34 162.5q0 83 29 166t83 148.5t128 106.5t166 41q135 0 239 -69.5t173 -211.5v563h-1059v142h1422v-142h-221v-1401h-142v533q-15 65 -49.5 142t-84.5 144.5t-114 112.5t-138 45q-65 0 -118.5 -25t-92 -66t-59.5 -94.5t-21 -108.5
q0 -57 22 -111t71 -99z" />
    <glyph glyph-name="bn_pa" unicode="&#x9aa;" horiz-adv-x="1490" 
d="M901 1261q-53 42 -97 64t-79 33t-62 13t-47 2q-31 0 -72 -9t-84.5 -27t-84.5 -48.5t-71 -72.5q65 0 111 -12t79 -41.5t56.5 -81t43.5 -129.5q65 61 141.5 137t165.5 172zM1290 1771v-228h237v-142h-237v-1401h-142v868q0 8 -10 31.5t-26.5 54t-36 64.5t-37 63t-31.5 49
t-20 26q-75 -81 -203.5 -215t-313.5 -319l-100 93q103 108 103 198q0 32 -9.5 63t-28 55.5t-44 38.5t-57.5 14q-6 0 -132 -26l-98 100q15 68 64.5 132t117.5 114t147 80.5t153 30.5q366 0 562 -359v615h142z" />
    <glyph glyph-name="bn_pha" unicode="&#x9ab;" horiz-adv-x="1678" 
d="M936 0v193q-21 51 -62.5 102.5t-94.5 100t-116.5 92t-130.5 78.5t-135 60.5t-130 37.5l-80 101q101 77 196.5 155.5t184.5 155.5q-47 69 -142.5 151t-238.5 174h-236v142h1751v-142h-1275q173 -114 283 -270v-105q-69 -63 -146 -126.5t-162 -131.5q160 -51 294 -145.5
t240 -229.5v923q21 3 42 3h43q112 0 214 -32t180.5 -94t124.5 -153.5t46 -210.5q0 -43 -17.5 -81t-48 -67t-69.5 -46t-81 -17q-23 0 -55.5 7.5t-71.5 23.5l69 137q15 -14 29 -20t26 -6q77 0 77 97q0 69 -27 126.5t-75 98t-115.5 62.5t-148.5 22v-1166h-142z" />
    <glyph glyph-name="bn_ba" unicode="&#x9ac;" horiz-adv-x="1216" 
d="M873 1142q-29 -7 -75 -24.5t-98.5 -41t-108.5 -52t-106 -56.5t-90 -54t-60 -46q36 -4 86 -23.5t105 -50.5t110 -69.5t103 -80t84 -82t50 -73.5v653zM1015 0h-142v246q-12 42 -48.5 95t-89 109t-116 109.5t-129.5 96t-129.5 68t-114.5 25.5q-11 0 -20.5 -1t-17.5 -4
l-92 150q348 268 757 388v119h-892v142h1235v-142h-201v-1401z" />
    <glyph glyph-name="bn_bha" unicode="&#x9ad;" horiz-adv-x="1582" 
d="M-13 1401v142h1659v-142h-1659zM848 1069q-76 58 -115 58q-42 0 -65 -29t-23 -83q0 -81 53 -120.5t154 -39.5q50 0 90.5 13.5t78 50.5t77.5 102.5t89 167.5q78 -54 132.5 -108t88.5 -114t49 -127.5t15 -148.5q0 -96 -38 -185t-103 -158t-150.5 -110.5t-182.5 -41.5
q-147 0 -278 58.5t-246 187t-212 330t-154 388.5l135 40q51 -196 128 -355t173 -272t208.5 -174.5t234.5 -61.5q74 0 137 35.5t108.5 92t71.5 128t26 143.5q0 65 -23 123t-70 104q-77 -131 -170.5 -190.5t-203.5 -59.5q-80 0 -146 21.5t-113.5 62.5t-73.5 102t-26 140
q0 46 14 87.5t39.5 73t62 50.5t82.5 19q114 -1 200 -82z" />
    <glyph glyph-name="bn_ma" unicode="&#x9ae;" horiz-adv-x="1386" 
d="M759 1050q81 -27 152.5 -94.5t132.5 -172.5v618h-652q80 -27 137 -56.5t100 -70t74 -95t56 -129.5zM1186 1401v-1401h-142v478q0 28 -17.5 72t-47 93.5t-67.5 98.5t-78.5 89t-79.5 65t-72 25q-148 0 -234 -78.5t-86 -225.5q0 -220 234 -266l-63 -121h-11q-61 0 -115 38
t-96 95t-66 123t-24 123q0 378 383 455q-18 48 -43.5 82.5t-72.5 61.5t-122 50.5t-190 49.5v93h-182v142h1398v-142h-206z" />
    <glyph glyph-name="bn_ya" unicode="&#x9af;" horiz-adv-x="1288" 
d="M442 1401q42 -28 82.5 -56.5t78 -59.5t71.5 -68t61 -83q-127 -101 -226.5 -187t-172.5 -159q114 -35 192 -66.5t143.5 -74t128.5 -101.5t145 -145v1000h-503zM-55 1543h1346v-142h-204v-1401h-142v211q-47 78 -124.5 151t-169.5 131.5t-192 99.5t-191 56l-125 156
q72 73 172.5 159t231.5 183q-4 7 -29 28.5t-62 50t-81 59t-84 57t-70 43t-41 16.5h-235v142z" />
    <glyph glyph-name="bn_ra" unicode="&#x9b0;" horiz-adv-x="1215" 
d="M873 1142q-29 -7 -75 -24.5t-98.5 -41t-108.5 -52t-106 -56.5t-90 -54t-60 -46q36 -4 86 -23.5t105 -50.5t110 -69.5t103 -80t84 -82t50 -73.5v653zM1015 0h-142v246q-12 42 -48.5 95t-89 109t-116 109.5t-129.5 96t-129.5 68t-114.5 25.5q-11 0 -20.5 -1t-17.5 -4
l-92 150q348 268 757 388v119h-892v142h1235v-142h-201v-1401zM497 417q68 0 111.5 -43t43.5 -112t-43.5 -112.5t-111.5 -43.5q-69 0 -111.5 43.5t-42.5 112.5t42.5 112t111.5 43z" />
    <glyph glyph-name="bn_la" unicode="&#x9b2;" horiz-adv-x="1487" 
d="M478 409q-92 0 -159.5 34.5t-112 90.5t-66 128t-21.5 148t22 148.5t66.5 129.5t112 91.5t158.5 34.5q166 -3 263 -153q21 70 74.5 104.5t105.5 34.5q35 0 69.5 -12t64 -34.5t53 -54t37.5 -70.5v372h-1167v142h1525v-142h-216v-1401h-142v763q-22 96 -44 143t-57 86
t-70 52.5t-54 13.5q-28 0 -47.5 -15.5t-33.5 -39.5t-17.5 -54t-2.5 -79.5t4 -60.5l-118 -23q0 49 -16.5 113.5t-45.5 98t-69.5 54t-88.5 20.5q-57 0 -99 -23t-69.5 -59.5t-41.5 -83.5t-14 -96q0 -51 14.5 -100t44.5 -86.5t74.5 -61t103.5 -23.5h18q9 0 17 2l-48 -132h-7z
" />
    <glyph glyph-name="bn_sha" unicode="&#x9b6;" horiz-adv-x="1476" 
d="M196 965q19 -19 45.5 -35.5t65.5 -16.5q28 5 52.5 24t42 45t27.5 56.5t10 59.5q0 71 -28.5 127t-76.5 95t-111 60t-132 21q-58 0 -114 -19v156q30 4 58.5 4.5t57.5 0.5q79 0 152 -14t133 -48.5t101 -91.5t55 -142q35 131 105.5 196.5t181.5 65.5q58 -6 100 -28.5
t76.5 -56.5t65.5 -77.5t70 -93.5v518h142v-228h222v-142h-222v-1401h-142v968q0 24 -13.5 62.5t-38 83t-55.5 90t-67.5 82t-74 59.5t-74.5 23q-69 0 -112 -67.5t-43 -211.5q0 -32 14 -61t38 -50t54 -33.5t63 -12.5q46 0 88 31l66 -119q-43 -31 -84 -42.5t-76 -11.5
q-83 0 -148 38.5t-112 123.5q-20 -42 -49 -75t-63 -57t-70.5 -36.5t-71.5 -12.5q-47 0 -91.5 17.5t-88.5 63.5z" />
    <glyph glyph-name="bn_ssa" unicode="&#x9b7;" horiz-adv-x="1297" 
d="M359 1401q99 -39 246.5 -144t346.5 -281v425h-593zM952 757q-35 50 -106.5 121.5t-175.5 163.5q-94 -69 -166.5 -136.5t-129.5 -134.5q339 -37 578 -351v337zM952 177q-92 131 -169.5 218t-154 139.5t-155.5 75.5t-172 26l-116 160q39 48 130 130t239 200
q-76 57 -193.5 124.5t-279.5 150.5h-94v142h1320v-142h-213v-1401h-142v177z" />
    <glyph glyph-name="bn_sa" unicode="&#x9b8;" horiz-adv-x="1500" 
d="M1156 678q-10 31 -38 80t-64.5 96.5t-75.5 81t-73 33.5q-40 0 -74 -34.5t-66 -85.5t-64.5 -110.5t-70.5 -111t-85 -85.5t-107 -34q-69 0 -146 73.5t-167 220.5l123 66q13 -26 30.5 -63.5t40.5 -72t51 -59t60 -24.5q27 0 59 29t59 69t45.5 81t21.5 66q-13 94 -35.5 159.5
t-72 111.5t-137 79t-230.5 64v93h-155v142h1519v-142h-205v-1401h-143v678zM359 1401q81 -32 138 -63t99.5 -71.5t74.5 -96.5t60 -139q84 80 180 80q109 0 245 -190v480h-797z" />
    <glyph glyph-name="bn_ha" unicode="&#x9b9;" horiz-adv-x="1272" 
d="M-39 1401v142h1327v-142h-1327zM1272 -147q-236 259 -500.5 436.5t-567.5 277.5v145q199 -79 362 -79q76 0 144.5 25.5t120.5 69.5t83 101.5t31 122.5q0 48 -31 95.5t-78 85t-102 60.5t-102 23q-43 0 -88.5 -14t-83 -39t-62 -61.5t-24.5 -80.5q0 -27 20.5 -55t55.5 -59
l-85 -116q-133 82 -133 240q0 62 40.5 121t101.5 105t132.5 73.5t132.5 27.5q73 0 152.5 -33.5t145 -90.5t108 -130.5t42.5 -151.5q0 -309 -413 -446q232 -127 405.5 -266.5t296.5 -294.5z" />
    <glyph glyph-name="bn_nukta" unicode="&#x9bc;" horiz-adv-x="63" 
d="M-896 -135q68 0 111.5 -43t43.5 -112t-43.5 -112.5t-111.5 -43.5q-69 0 -111.5 43.5t-42.5 112.5t42.5 112t111.5 43z" />
    <glyph glyph-name="bn_avagraha" unicode="&#x9bd;" horiz-adv-x="1219" 
d="M-69 1401v142h821v-263h-143v121h-678zM1242 -147q-236 259 -500.5 436.5t-567.5 277.5v158q199 -92 362 -92q76 0 144.5 25.5t120.5 69.5t83 101.5t31 122.5q0 48 -31 95.5t-78 85t-102 60.5t-102 23q-43 0 -88.5 -14t-83 -39t-62 -61.5t-24.5 -80.5q0 -27 20.5 -55
t55.5 -59l-85 -116q-133 82 -133 240q0 62 40.5 121t101.5 105t132.5 73.5t132.5 27.5q73 0 152.5 -33.5t145 -90.5t108 -130.5t42.5 -151.5q0 -309 -413 -446q232 -127 405.5 -266.5t296.5 -294.5z" />
    <glyph glyph-name="bn_aakaar" unicode="&#x9be;" horiz-adv-x="536" 
d="M-146 1543h198q20 -13 37 -26t35 -30.5t38.5 -41t47.5 -57.5v383h142v-228h245v-142h-245v-1401h-142v1197q-27 73 -79 127t-124 77h-153v142z" />
    <glyph glyph-name="bn_ikaar" unicode="&#x9bf;" horiz-adv-x="541" 
d="M200 0v1401h-241v142h203l-116 161q13 98 67 185t133 152t175 103t195 38q244 0 477 -125q81 -43 182.5 -116.5t224.5 -178.5l-97 -106q-202 194 -397.5 289t-384.5 95q-72 0 -144.5 -27.5t-133.5 -75t-103.5 -110.5t-42.5 -119l128 -165h222v-142h-206v-1401h-141z" />
    <glyph glyph-name="bn_iikaar" unicode="&#x9c0;" horiz-adv-x="533" 
d="M-74 1543h274q-29 127 -101.5 229.5t-174 174t-224.5 110t-249 38.5q-61 0 -127 -12.5t-121 -36.5t-90 -55t-35 -67q23 -7 94.5 -13.5t190.5 -11.5q136 -5 230 -22.5t151.5 -50.5t82.5 -81.5t25 -116.5q0 -58 -67 -174l-124 47q57 58 69 114q-8 39 -28.5 66.5t-64 44.5
t-116.5 24.5t-187 7.5q-201 0 -299.5 39.5t-98.5 138.5q0 62 44.5 116.5t117 96t163.5 65t184 23.5q170 0 312.5 -46t256 -134.5t196 -217.5t132.5 -296h230v-142h-230v-1401h-142v1401h-274v142z" />
    <glyph glyph-name="bn_ukaar" unicode="&#x9c1;" horiz-adv-x="0" 
d="M-560 -246q24 0 47.5 8t44 23t36.5 35.5t24 44.5q-31 27 -68 39t-72 12q-20 0 -42.5 -4t-40.5 -14t-29.5 -27t-11.5 -42q0 -38 30.5 -56.5t81.5 -18.5zM-260 211q28 -85 43 -143.5t15 -89.5q0 -6 -3 -27t-10 -56q50 -39 87.5 -69.5t67 -57t54 -53t50.5 -57.5t56 -70.5
t70 -93.5l-110 -85q-159 232 -346 361q-79 -96 -158.5 -126.5t-164.5 -30.5q-44 0 -82 18t-65.5 48.5t-42.5 71t-15 86.5t22.5 86.5t59.5 70.5t85.5 47t101.5 17q27 0 76 -17t122 -52l3 27q0 37 -33 124z" />
    <glyph glyph-name="bn_uukaar" unicode="&#x9c2;" horiz-adv-x="0" 
d="M-218 100l63 -174l-82 -95q-67 16 -103 16q-71 0 -115 -33t-44 -83q0 -46 28 -68t90 -22q73 0 133.5 24t113.5 72l457 -389l-96 -105l-376 314q-39 -19 -99 -38.5t-155 -19.5q-50 0 -93 17t-75.5 47.5t-51 72t-18.5 93.5q0 56 24 103.5t66.5 82.5t100.5 54.5t127 19.5
l-22 61z" />
    <glyph glyph-name="bn_rikaar" unicode="&#x9c3;" horiz-adv-x="3" 
d="M-707 -234l401 295l43 137l91 -224l-277 -206l529 -371l-87 -127z" />
    <glyph glyph-name="bn_rrikaar" unicode="&#x9c4;" horiz-adv-x="3" 
d="M-434 -266l-188 -128l499 -300l-80 -134l-719 422l336 220l-157 85l421 255l43 137l101 -224l-264 -157l443 -252l-88 -124z" />
    <glyph glyph-name="bn_ekaar" unicode="&#x9c7;" horiz-adv-x="703" 
d="M838 161q-42 -85 -106.5 -123.5t-153.5 -38.5q-120 0 -208.5 59t-146.5 154.5t-86.5 214t-28.5 237.5q0 96 26.5 204t76.5 209.5t121.5 187t160.5 136.5h-623v142h945v-136q-139 -41 -244 -120t-176.5 -185t-108 -234t-36.5 -269q0 -47 11.5 -99.5t31.5 -104t48.5 -97.5
t62 -81t71 -56t76.5 -21q32 0 53.5 4t40.5 15t38 30.5t45 50.5q39 -33 110 -79z" />
    <glyph glyph-name="bn_aikaar" unicode="&#x9c8;" horiz-adv-x="672" 
d="M-84 1543h649q0 70 -10 112t-48 63.5t-111.5 27.5t-200.5 6h-113q-41 0 -56 3q-59 8 -98 38.5t-62 68t-32.5 74t-9.5 55.5q0 100 58 185l122 -66q-38 -82 -38 -116q0 -97 137 -97q17 0 38 1t41.5 2.5t39 3t26.5 1.5q129 -3 216.5 -23t140 -62.5t76 -111t26.5 -165.5h196
v-142h-172q-115 -69 -206.5 -148.5t-155 -171t-98 -195t-34.5 -219.5q0 -81 20.5 -173.5t59.5 -171t94.5 -130.5t126.5 -52q28 0 49 3.5t40.5 14.5t40 30.5t44.5 51.5q39 -33 111 -79q-42 -85 -106.5 -123.5t-154.5 -38.5q-71 0 -134 27t-115 74t-92.5 110.5t-68 135.5
t-42.5 149t-15 152q0 108 24.5 215t72.5 205.5t117.5 183.5t161.5 150h-555v142z" />
    <glyph glyph-name="bn_okaar" unicode="&#x9cb;" horiz-adv-x="2458" 
d="M1704 1543h270q20 -13 37 -26t35 -30.5t39 -41t47 -57.5v383h140v-228h205v-142h-205v-1401h-140v1197q-27 73 -79 127t-122 77h-227v142zM1692 1029q-59 98 -152 155l83 119q121 -75 190 -189zM1396 1247q-24 7 -51 10.5t-57 3.5q-28 0 -56 -3.5t-55 -10.5l-24 143l8 2
q34 7 65 11t59 4q35 0 70 -5t67 -12zM1897 799q0 -67 -16 -132l-145 24q7 26 10.5 52t3.5 53q0 29 -3.5 56.5t-10.5 54.5l145 25q16 -68 16 -133zM1813 483q-73 -116 -190 -190l-83 121q93 57 152 156zM1037 1184q-47 -30 -85 -69t-68 -86l-121 85q71 114 191 189zM694 667
q-7 31 -10.5 64t-3.5 68q0 34 3.5 67.5t10.5 65.5l147 -25q-15 -57 -15 -111q0 -52 15 -105zM1422 208q-32 -10 -67 -14t-70 -4q-63 0 -132 18l24 140q27 -4 55 -7.5t56 -3.5q30 0 57 3.5t51 7.5zM954 293q-116 74 -191 190l121 87q30 -48 68 -87t85 -69zM868 161
q-42 -85 -106 -123t-153 -38q-120 0 -209.5 59.5t-147.5 154.5t-86 213t-28 237q0 96 27 204t76 209.5t120.5 187t160.5 136.5h-622v142h946v-136q-139 -41 -245 -120t-177.5 -185t-108 -234t-36.5 -269q0 -47 11.5 -99.5t32 -104t49 -97.5t62 -81t70.5 -56t76 -21
q33 0 55 4t41 15t38 30.5t43 50.5q19 -16 47.5 -36t63.5 -43z" />
    <glyph glyph-name="bn_aukaar" unicode="&#x9cc;" horiz-adv-x="2392" 
d="M2165 5h-144v1396h-335v142h335l5 100q0 31 -16.5 56t-44.5 43t-62.5 28.5t-69.5 10.5q-69 0 -150 -8.5t-166 -8.5q-93 0 -182 11t-158 43t-111.5 88.5t-42.5 148.5q0 47 17 99t55 113l113 -72q-25 -39 -34.5 -74t-9.5 -64q0 -47 29 -76.5t77 -46.5t110 -23t129 -6
q103 0 195 6.5t146 6.5q60 0 115 -20.5t96.5 -55t68 -81.5t29.5 -96l6 -122h287v-142h-287v-1396zM857 161q-42 -85 -108 -123t-155 -38q-120 0 -208.5 59.5t-146.5 154.5t-86.5 213t-28.5 237q0 96 27 204t77 209.5t121.5 187t162.5 136.5h-625v142h945v-136
q-139 -41 -244.5 -120t-176.5 -185t-106.5 -234t-35.5 -269q0 -47 11.5 -99.5t31.5 -104t47.5 -97.5t61.5 -81t72 -56t77 -21q31 0 52.5 4t40.5 15t38.5 30.5t45.5 50.5q33 -33 110 -79zM1646 1050q-30 48 -68.5 87t-84.5 69l82 118q60 -37 107 -84t85 -103zM1349 1269
q-27 7 -54 10t-56 3q-27 0 -55 -3t-53 -10l-25 144q33 9 67.5 13t65.5 4q68 0 135 -17zM1847 821q0 -31 -3 -65t-11 -68l-144 25q12 54 12 105q0 62 -12 111l144 25q8 -33 11 -67.5t3 -65.5zM1767 506q-77 -120 -192 -187l-82 118q93 58 153 154zM987 1206q-47 -30 -85 -69
t-68 -87l-121 87q38 56 85 103t107 84zM647 688q-8 32 -11 65.5t-3 67.5t3 68t11 65l144 -25q-7 -24 -9 -52t-2 -59q0 -27 2 -52.5t9 -52.5zM1374 230q-33 -7 -67.5 -12t-67.5 -5q-31 0 -65.5 5t-67.5 12l25 143q25 -7 53 -10.5t55 -3.5q29 0 56 3.5t54 10.5zM905 319
q-115 67 -192 187l121 85q30 -47 68 -86t85 -68z" />
    <glyph glyph-name="bn_hasanta" unicode="&#x9cd;" horiz-adv-x="3" 
d="M-119 -459l-469 342l93 109l459 -340z" />
    <glyph glyph-name="bn_aumark" unicode="&#x9d7;" horiz-adv-x="606" 
d="M379 0h-141v1401h-335v142h335l5 100q0 31 -17 56t-44.5 43t-62.5 28.5t-72 10.5q-67 0 -147.5 -9t-165.5 -9q-93 0 -182 11.5t-159.5 43.5t-113 88.5t-42.5 148.5q0 91 72 212l116 -72q-26 -39 -36 -74t-10 -64q0 -47 29 -76.5t77 -46.5t110.5 -23t130.5 -6
q101 0 192 6.5t148 6.5q60 0 114 -20.5t95.5 -55t68 -81.5t29.5 -96l6 -122h276v-142h-276v-1401z" />
    <glyph glyph-name="bn_rra" unicode="&#x9dc;" horiz-adv-x="1545" 
d="M852 -27q68 0 111.5 -43t43.5 -112t-43.5 -112.5t-111.5 -43.5q-69 0 -111.5 43.5t-42.5 112.5t42.5 112t111.5 43zM775 860q0 -31 11 -46t38 -15q22 0 54.5 17.5t70 45.5t76 62.5t71.5 68t58 64t35 49.5q94 -62 151 -171.5t57 -264.5q0 -102 -42.5 -193.5t-115.5 -161
t-171.5 -110t-210.5 -40.5q-132 0 -232.5 51t-175 137.5t-125.5 199.5t-87 237.5t-58.5 249t-38.5 228.5l141 17q32 -254 90 -438t135 -304t168 -178.5t191 -58.5q76 0 147 34t125 88.5t86.5 125.5t32.5 145q0 57 -18.5 109.5t-53.5 104.5q-27 -42 -71.5 -87.5t-98.5 -82.5
t-110 -61.5t-105 -24.5q-29 0 -59 19t-53.5 47.5t-38.5 61.5t-15 61v555h-691v142h1609v-142h-776v-541z" />
    <glyph glyph-name="bn_rha" unicode="&#x9dd;" horiz-adv-x="1226" 
d="M1237 1401h-832v-1103q0 -44 4 -71t13.5 -42.5t25.5 -22.5t42 -12q55 5 110 35.5t103.5 77t89.5 106.5t71.5 127.5t47.5 138.5t17 139q0 105 -83 105q-18 0 -45 -11t-61 -48l-84 109q116 92 201 92q42 0 81 -24t68.5 -60.5t47 -81.5t17.5 -87q0 -82 -23 -170.5
t-63.5 -173t-96 -160t-119.5 -133t-134.5 -90.5t-141.5 -33q-54 0 -96.5 21t-72.5 59t-45.5 90t-15.5 112v1111h-292v142h1266v-142zM524 -106q68 0 111.5 -43t43.5 -112t-43.5 -112.5t-111.5 -43.5q-69 0 -111.5 43.5t-42.5 112.5t42.5 112t111.5 43z" />
    <glyph glyph-name="bn_yya" unicode="&#x9df;" horiz-adv-x="1288" 
d="M442 1401q42 -28 82.5 -56.5t78 -59.5t71.5 -68t61 -83q-127 -101 -226.5 -187t-172.5 -159q114 -35 192 -66.5t143.5 -74t128.5 -101.5t145 -145v1000h-503zM-55 1543h1346v-142h-204v-1401h-142v211q-47 78 -124.5 151t-169.5 131.5t-192 99.5t-191 56l-125 156
q72 73 172.5 159t231.5 183q-4 7 -29 28.5t-62 50t-81 59t-84 57t-70 43t-41 16.5h-235v142zM558 312q68 0 111.5 -43t43.5 -112t-43.5 -112.5t-111.5 -43.5q-69 0 -111.5 43.5t-42.5 112.5t42.5 112t111.5 43z" />
    <glyph glyph-name="bn_rri" unicode="&#x9e0;" horiz-adv-x="1711" 
d="M567 -216l380 268v269q-138 265 -598 481l-98 155q135 97 280.5 182t304.5 161q-16 19 -35 42.5t-39 46t-43 38.5t-49 22q-24 -38 -66 -74.5t-91 -65t-101.5 -46t-97.5 -17.5q-42 0 -82.5 15t-72 40.5t-51 60.5t-19.5 76q0 104 94 150l100 -79q-22 -15 -37.5 -31
t-15.5 -35q8 -40 28 -47.5t43 -7.5q40 0 90.5 26t100 64t92 81t65.5 77q36 -9 78.5 -39t84.5 -69t78 -81.5t57 -74.5v399h142v-846q171 -93 276 -230v1076h142v-228h222v-142h-222v-1401h-142v293q0 78 -8 139t-33 115t-92.5 121.5t-142.5 94.5v-763l-290 -212l508 -376
l-80 -111zM947 1192q-133 -55 -259.5 -121.5t-235.5 -149.5q70 -43 121.5 -74.5t92 -55.5t72.5 -45.5t64 -47.5t66.5 -59t78.5 -80v633z" />
    <glyph glyph-name="bn_lli" unicode="&#x9e1;" horiz-adv-x="1612" 
d="M1117 -480q20 1 57 16t73.5 42.5t63.5 69t27 93.5q0 63 -38 109.5t-90 86.5t-93.5 63t-156.5 64l-233 88q-76 -5 -115 -5q-127 0 -238 38l83 116l63 -13q72 17 120 58t77 90t41 95.5t12 74.5q0 37 -13.5 80t-40 80t-64 61.5t-87.5 24.5q-42 0 -78 -18.5t-63 -47.5
t-42.5 -64.5t-15.5 -69.5q0 -39 19 -70t69 -54l-105 -91q-62 31 -93.5 90t-31.5 125q0 80 30.5 143.5t78.5 107t107.5 67.5t116.5 24q83 0 149.5 -30t111.5 -81t69.5 -120t24.5 -149q0 -74 -14.5 -122t-33.5 -80.5t-38.5 -55.5t-31.5 -47q23 3 57.5 13.5t73.5 31t77.5 49
t69.5 65.5t50.5 82t19.5 99q0 85 -29 148.5t-77.5 111t-112.5 81t-134 60.5t-142.5 48.5t-137.5 46.5q-379 136 -379 343q0 125 194 262l75 -104q-67 -42 -97 -79t-30 -71q0 -61 62.5 -113t193.5 -96q201 -69 322.5 -117t165.5 -75q130 -81 199 -191t69 -255
q0 -83 -29 -153.5t-78 -125.5t-116.5 -97t-114.5 -57l69 -28q111 -36 182 -74.5t138 -89t106 -120t39 -168.5q0 -67 -25.5 -120.5t-67.5 -95.5t-97 -71.5t-112 -49t-114 -28.5t-104 -9q-38 0 -81 10t-77 24l61 101q8 -3 19 -5.5t17 -2.5q39 0 68.5 22.5t49 52.5t29.5 63
t10 54q0 24 -9.5 41.5t-25 28.5t-33 15.5t-33.5 4.5q-39 0 -63 -21.5t-24 -52.5q0 -16 11 -32.5t42 -31.5l-116 -55q-39 16 -58.5 52t-19.5 78q0 47 18.5 85.5t48.5 65t65.5 40.5t69.5 14q51 0 100 -13t86 -40t60 -70.5t23 -106.5q0 -39 -19.5 -84t-61.5 -79z" />
    <glyph glyph-name="bn_likaar" unicode="&#x9e2;" horiz-adv-x="0" 
d="M-297 -450q0 -29 -10.5 -60t-33.5 -59q21 8 45.5 23t46 36t35.5 48t14 60q0 48 -31 85.5t-77.5 66.5t-101 51t-102.5 39q-50 18 -95 39.5t-79 48t-54 57t-20 66.5q0 15 3.5 30t14 31t29 32.5t48.5 36.5l77 -83q-17 -16 -25.5 -26.5t-8.5 -24.5q0 -17 23 -26.5t61 -21.5
l31.5 -10.5t33.5 -11.5h-1q82 -29 156.5 -60.5t131 -75t90 -104t33.5 -146.5q0 -57 -22 -102.5t-58 -81t-82.5 -61t-96 -42t-97.5 -24t-87 -7.5q-35 0 -75.5 9t-73.5 20l62 106q8 -3 19.5 -6t16.5 -3q30 0 52.5 17t37.5 40t23 48t8 42q0 19 -7 32t-18 21t-24.5 12t-26.5 4
q-28 0 -45 -16.5t-17 -36.5q0 -11 11.5 -24.5t44.5 -30.5l-121 -58q-37 17 -54.5 50.5t-17.5 71.5q0 42 16.5 75.5t42.5 57t57.5 36t61.5 12.5q45 0 87.5 -11t75.5 -35.5t53 -63t20 -92.5z" />
    <glyph glyph-name="bn_llikaar" unicode="&#x9e3;" horiz-adv-x="13" 
d="M-551 -414q0 -30 -11.5 -61t-34.5 -59q21 8 46 23t47 36t36.5 48.5t14.5 60.5q0 48 -31 85.5t-77.5 66.5t-102 51t-104.5 39q-48 18 -92.5 40t-78 48t-53.5 56.5t-20 66.5q0 16 4 31t13.5 30.5t27 32.5t44.5 37l91 -83q-18 -17 -25 -27t-8 -24q2 -20 26.5 -31t69.5 -26
q9 -2 20.5 -6.5t21.5 -7.5q82 -29 156.5 -60.5t131.5 -75t90.5 -103.5t33.5 -146q0 -57 -22 -103t-58 -81.5t-83 -61t-96.5 -42t-98.5 -24t-89 -7.5q-32 0 -72 9.5t-73 21.5l63 103q8 -2 17 -5t17 -3q29 0 51.5 17t38 40.5t23.5 48.5t8 41q0 19 -7.5 32t-18.5 21.5t-25 12
t-26 3.5q-29 0 -44 -15.5t-15 -37.5q0 -11 11.5 -24t45.5 -31l-124 -58q-36 20 -53 52.5t-17 70.5q0 37 16 70t41.5 57.5t57 39t62.5 14.5q44 0 86 -11.5t75 -36t53 -63t20 -92.5zM-96 -148q0 -27 -11.5 -58.5t-35.5 -58.5q21 8 46.5 22t47 35t36 48t14.5 61q0 48 -31 85.5
t-77.5 66.5t-101.5 50.5t-102 38.5q-51 18 -96 39.5t-78.5 47.5t-53.5 57t-20 67q0 17 4 32t14 30t28 32.5t46 38.5l84 -83q-17 -17 -25.5 -27.5t-8.5 -26.5q0 -18 27 -30t68 -26v1q12 -4 23.5 -8.5t23.5 -8.5q82 -28 157 -59t132 -74t91 -103t34 -145q0 -58 -22 -103.5
t-58 -81t-82.5 -61t-96 -41.5t-98.5 -23.5t-89 -7.5q-32 0 -71.5 9t-74.5 21l60 106q9 -5 20 -8t16 -3q30 0 53 17t38.5 40.5t23.5 48.5t8 41q0 17 -7.5 29.5t-19 21t-25 12.5t-25.5 4q-28 0 -45.5 -16t-17.5 -38q0 -10 12 -23t45 -29l-122 -58q-37 17 -54.5 51t-17.5 69
q0 42 17 76t43 57.5t57.5 36t60.5 12.5q45 0 87.5 -11.5t76 -36t53.5 -63t20 -92.5z" />
    <glyph glyph-name="bn_zero" unicode="&#x9e6;" horiz-adv-x="1385" 
d="M1160 728q0 -121 -39.5 -221.5t-109 -173t-164.5 -113t-208 -40.5q-102 0 -186 37.5t-145 103t-94.5 152.5t-33.5 187q0 109 39.5 206t109 168.5t164 113t204.5 41.5q101 0 185.5 -34.5t146.5 -95.5t96.5 -146t34.5 -185zM694 1048q-84 0 -152.5 -28.5t-117.5 -80
t-76 -121.5t-27 -154q0 -75 22.5 -138t64.5 -108t101 -71t132 -26q88 0 158 32t119 87t74.5 129.5t25.5 160.5q0 72 -23 130.5t-65.5 100t-102.5 64.5t-133 23z" />
    <glyph glyph-name="bn_one" unicode="&#x9e7;" horiz-adv-x="1211" 
d="M520 5q-65 0 -120.5 18.5t-97 48t-65.5 67.5t-24 77q0 46 24.5 90t67 78t98.5 54.5t119 20.5l31 -130q-28 -8 -62.5 -16t-64.5 -21t-50.5 -31.5t-20.5 -47.5q0 -20 13 -33t32.5 -20t43 -10t45.5 -3q82 0 151 28.5t119 79t78 120t28 153.5q0 69 -23 129.5t-61.5 115.5
t-88 104.5t-103 95t-107.5 87.5t-100 82q-170 146 -170 277q0 19 15 49t42 70l116 -71q-31 -37 -31 -66q0 -32 37.5 -80.5t122.5 -109.5q114 -80 205 -155t155 -158t98.5 -180.5t34.5 -224.5q0 -95 -40 -182.5t-107.5 -156t-155.5 -109t-184 -40.5z" />
    <glyph glyph-name="bn_two" unicode="&#x9e8;" horiz-adv-x="1324" 
d="M683 462q271 -180 649 -525l-93 -100q-109 100 -199 177.5t-170 141.5t-156.5 118t-158.5 107.5t-175.5 109.5t-208.5 123l-36 169q77 -45 131.5 -76t96 -52t71.5 -33t58.5 -18t57.5 -8t67 -2q323 0 323 238q0 140 -133 236q-27 13 -66 36q-34 19 -84 47.5t-116 67.5
q-162 92 -206 197l108 96q23 -54 41 -82.5t45 -48.5t70.5 -39.5t115.5 -53.5q366 -174 366 -486q0 -69 -33.5 -130.5t-89 -107.5t-127 -73.5t-148.5 -28.5z" />
    <glyph glyph-name="bn_three" unicode="&#x9e9;" horiz-adv-x="1467" 
d="M1384 749q0 -140 -39.5 -255.5t-114 -198t-183.5 -128t-248 -45.5q-128 0 -237.5 70t-202.5 204.5t-170.5 328.5t-142.5 441l142 34q21 -82 51 -184t69 -206t91 -202.5t119 -175t150 -123t187 -46.5q94 6 167 49.5t121.5 112t73.5 154t25 176.5q0 90 -29 184t-81 169.5
t-123.5 123.5t-156.5 48q-53 0 -96 -14.5t-74 -38.5t-48 -56t-17 -65q0 -64 63 -119l-44 -135q-84 28 -122.5 89.5t-38.5 134.5q0 61 25 123t69.5 111t106.5 80.5t137 31.5q81 0 154.5 -26t137 -71t115.5 -108t88.5 -138t56 -158.5t19.5 -171.5z" />
    <glyph glyph-name="bn_four" unicode="&#x9ea;" horiz-adv-x="1302" 
d="M1089 423q0 -80 -37 -146t-100.5 -113.5t-147.5 -74t-179 -26.5q-92 0 -168 26.5t-132 76t-87 121t-31 161.5q0 52 12 93t45 83t90.5 90.5t149.5 117.5q-80 24 -143.5 63t-109.5 90.5t-70 113.5t-24 131q0 75 36.5 142.5t97 118.5t139 80.5t161.5 29.5q103 0 186 -25.5
t141.5 -73.5t90.5 -117.5t32 -157.5q0 -55 -10 -99t-42.5 -88t-91.5 -94t-156 -117q177 -69 262.5 -170t85.5 -236zM899 1242q-3 57 -26.5 98t-65.5 67.5t-100.5 39t-131.5 12.5q-47 0 -96.5 -17.5t-89 -48t-65.5 -71.5t-26 -89q0 -63 30 -115.5t78 -91t108.5 -60
t121.5 -21.5q46 23 75 41t46.5 33t27.5 26t20 19q43 38 68.5 81t25.5 90v7zM630 744q-59 -24 -110.5 -60.5t-90 -79t-60 -87t-21.5 -86.5q0 -52 24 -93t65 -70.5t95.5 -46t116.5 -16.5t117 16.5t95.5 46t63.5 70.5t23 93q0 185 -318 313z" />
    <glyph glyph-name="bn_five" unicode="&#x9eb;" horiz-adv-x="1328" 
d="M1214 987q-134 -55 -221.5 -105t-139 -107t-72.5 -124.5t-21 -155.5q0 -94 54.5 -188.5t161.5 -187.5l-89 -106q-19 11 -34 24t-30 29q-28 -8 -57 -11.5t-59 -3.5q-71 0 -141.5 23t-133.5 63t-117 95.5t-94 120t-63 136t-23 144.5q0 122 21 219t63 176.5t102.5 144
t139.5 122.5t176 111t212 111l61 -118l-103 -53q10 -58 18.5 -94.5t20 -59.5t26.5 -36.5t36.5 -27t52 -30.5t70.5 -45q30 15 61 30t69 31zM707 193q-46 59 -67.5 129.5t-21.5 147.5q0 74 19 149.5t55 143t85 124.5t110 94q-72 42 -105.5 70.5t-49 59t-22.5 68t-24 98.5
q-88 -38 -163 -101.5t-129.5 -144.5t-85.5 -172.5t-31 -186.5q0 -86 32.5 -172t90.5 -154t137 -110.5t170 -42.5z" />
    <glyph glyph-name="bn_six" unicode="&#x9ec;" horiz-adv-x="1386" 
d="M727 641q-80 0 -125.5 32t-70 100t-36 173.5t-22.5 250.5l-8 96q-3 19 -36 32t-90 13l12 142q93 0 153.5 -39.5t103.5 -104.5q12 -18 18 -67.5t9.5 -111t8 -127.5t15.5 -120.5t30.5 -90.5t53.5 -36q47 0 78.5 21.5t55.5 54t43 71t40.5 71t49.5 54t70 21.5q48 0 91.5 -34
t76.5 -92.5t53.5 -136t20.5 -164.5q0 -108 -32 -212t-92.5 -185t-149.5 -130.5t-203 -49.5q-117 0 -219 43.5t-186.5 119t-152 176.5t-116 215t-79 234t-40.5 235l141 24q10 -94 36 -197.5t68.5 -204t99.5 -191.5t128.5 -160.5t155 -111t181.5 -41.5q78 0 137.5 40.5
t100 105t60.5 144t20 157.5q0 80 -21.5 149.5t-67.5 108.5q-11 -57 -47.5 -107t-87.5 -87.5t-112 -60t-117 -22.5z" />
    <glyph glyph-name="bn_seven" unicode="&#x9ed;" horiz-adv-x="1393" 
d="M1198 124q-24 -16 -47 -24t-42.5 -12t-34.5 -5t-20 -1q-38 0 -65 25t-44.5 67.5t-27.5 98t-14.5 116.5t-5.5 122t-1 117l7 105q-61 0 -131.5 -10t-143.5 -10q-83 0 -164 13.5t-146.5 49t-109.5 99t-53 164.5q0 80 40.5 161t104.5 146t143.5 106t159.5 41
q85 0 150.5 -26.5t113.5 -73t81 -109t52.5 -137t28 -155.5t8.5 -163v-452q0 -31 2.5 -58t8.5 -49t16.5 -34t28.5 -12q8 0 21 10t23 14zM896 873q-3 23 -3 54q0 33 -3.5 71.5t-13 83.5t-32.5 95q-22 50 -52 84t-61.5 54t-64 28t-61.5 8q-33 0 -68 -14t-69.5 -37.5
t-65.5 -54.5t-55 -65.5t-37.5 -71t-13.5 -69.5q0 -40 20 -73.5t54 -58.5t80.5 -38.5t99.5 -13.5q8 0 34 0.5t57 2t60 2.5t41 3z" />
    <glyph glyph-name="bn_eight" unicode="&#x9ee;" horiz-adv-x="1464" 
d="M856 786q8 -31 13 -63t5 -63q0 -104 -38.5 -207t-104 -185t-153.5 -132.5t-186 -50.5q-69 0 -128 55.5t-104 163.5v993q0 77 -80 141l121 60q48 -35 74 -89t26 -127v-356q131 78 254 78q157 0 219 -94q128 96 237 96q7 0 22 -2t33 -4t37 -3.5t35 -1.5q57 0 90 5.5
t54 15.5t37 24t38 33l66 -121q-23 -35 -48 -55.5t-68 -30.5t-112 -13.5t-178 -3.5q-42 0 -86 -16t-75 -47zM301 312q0 -14 9 -28.5t22.5 -27.5t31 -21t33.5 -8q81 0 143 40.5t104.5 101t65 132t22.5 135.5q0 63 -9.5 106.5t-32 70.5t-58.5 38.5t-90 11.5q-61 0 -120 -23
t-121 -75v-453z" />
    <glyph glyph-name="bn_nine" unicode="&#x9ef;" horiz-adv-x="1332" 
d="M1089 597q-8 87 -55.5 150.5t-120.5 111t-163.5 83t-183 67.5t-181 65t-156.5 74t-110 96t-42 130q0 126 100 214l105 -95q-63 -24 -63 -71q0 -57 60 -110.5t194 -103.5q209 -79 330.5 -128.5t159.5 -72.5q268 -159 268 -408q0 -110 -47 -198.5t-125 -153.5
t-178.5 -106.5t-205.5 -58.5l22 142l63 19q7 30 9 65.5t2 78.5q0 63 -19.5 117.5t-56 95.5t-86.5 64.5t-111 23.5q-36 0 -66.5 -18.5t-51.5 -49t-33 -67.5t-12 -75q0 -151 160 -151l-60 -129q-54 0 -98.5 24.5t-76.5 64.5t-49.5 91t-17.5 105q0 79 27 143t74.5 110t113.5 70
t145 24t145 -43t113.5 -110t74.5 -148.5t27 -158.5q0 -16 -1.5 -29.5t-4.5 -31.5q33 12 66 46t58.5 76.5t41.5 87t16 78.5z" />
    <glyph glyph-name="bn_asamira" unicode="&#x9f0;" horiz-adv-x="1216" 
d="M1015 0h-142v246q-12 42 -48.5 95t-89 109t-116 109.5t-129.5 96t-129.5 68t-114.5 25.5q-11 0 -20.5 -1t-17.5 -4l-92 150q348 268 757 388v119h-892v142h1244v-142h-210v-1401zM873 697l-375 279q-54 -31 -98.5 -58.5t-64.5 -49.5q36 -4 86 -23.5t105 -50.5t110 -69.5
t103 -80t84 -82t50 -73.5v208zM873 1142q-39 -8 -102.5 -35t-134.5 -62l237 -177v274z" />
    <glyph glyph-name="bn_asamiba" unicode="&#x9f1;" horiz-adv-x="1216" 
d="M873 1142q-29 -7 -75 -24.5t-98.5 -41t-108.5 -52t-106 -56.5t-90 -54t-60 -46q36 -4 86 -23.5t105 -50.5t110 -69.5t103 -80t84 -82t50 -73.5v653zM1015 0h-142v246q-12 42 -48.5 95t-89 109t-116 109.5t-129.5 96t-129.5 68t-114.5 25.5q-11 0 -20.5 -1t-17.5 -4
l-92 150q348 268 757 388v119h-892v142h1244v-142h-210v-1401zM630 105q-35 61 -89 119.5t-118 106.5t-135.5 83.5t-143.5 49.5l83 127q73 -17 148 -53.5t141.5 -86.5t120.5 -111.5t88 -128.5z" />
    <glyph glyph-name="bn_rupeemark" unicode="&#x9f2;" horiz-adv-x="1187" 
d="M1303 271h-142q-65 261 -150 456.5t-181 337t-198.5 233.5t-202.5 146t-191 76t-164 23v142q241 0 436 -101.5t346.5 -287t262.5 -446t184 -579.5z" />
    <glyph glyph-name="bn_rupeesign" unicode="&#x9f3;" horiz-adv-x="1127" 
d="M604 973v-141h-178v-249q0 -46 4.5 -87.5t21 -75t48 -54t85.5 -23.5q62 0 121 31t104 81t72 110.5t27 120.5q0 56 -29 104t-95 78l121 95q75 -56 110 -127t35 -148q0 -87 -37 -173.5t-100 -156.5t-144.5 -113.5t-170.5 -43.5q-100 0 -161.5 38t-95.5 100.5t-46 143
t-12 166.5v183h-238v141h238v207q0 38 -4 77t-18 71.5t-40.5 54.5t-72.5 26l66 106q69 -29 111 -58.5t64 -68t29 -92t7 -130.5v-193h178z" />
    <glyph glyph-name="bn_currency1" unicode="&#x9f4;" horiz-adv-x="1335" 
d="M1300 1683q-73 -320 -183.5 -580.5t-262.5 -445t-347 -285.5t-435 -101v142q72 0 163.5 22.5t191 76.5t202.5 145.5t198.5 232.5t180.5 336.5t150 456.5h142z" />
    <glyph glyph-name="bn_currency2" unicode="&#x9f5;" horiz-adv-x="1481" 
d="M390 350q82 54 132.5 89t77.5 67.5t36 70t9 98.5q0 49 -15.5 95.5t-44 83t-67.5 58.5t-86 22q-45 0 -83.5 -17.5t-67 -46t-44.5 -65t-16 -72.5q0 -34 15 -67t43 -60l-116 -44q-43 37 -63.5 84.5t-20.5 97.5q0 61 25 120t67.5 106.5t100.5 76.5t123 29q64 0 132 -27.5
t124.5 -78.5t94 -121t37.5 -155v-23t-3 -27q65 49 129 111.5t122.5 133.5t112 148.5t94.5 158t70.5 161.5t41.5 158l141 -25q-20 -132 -76 -264.5t-139 -258.5t-187 -241.5t-219.5 -214t-238 -176t-241.5 -127.5v142z" />
    <glyph glyph-name="bn_currency3" unicode="&#x9f6;" horiz-adv-x="1549" 
d="M1361 1581h142q-13 -208 -56.5 -400.5t-113 -359t-163 -303t-204.5 -234.5t-238 -151t-264 -53q-83 0 -160 23t-137 66t-96 107t-36 147q0 56 21.5 91t56.5 53.5t80 24.5t92 6q42 0 83 -2.5t75 -2.5q66 0 118.5 19.5t89.5 53t57 79.5t20 99q0 35 -14.5 65.5t-40 53.5
t-60 36.5t-74.5 13.5q-46 0 -75 -12.5t-46 -32t-24 -45t-7 -52.5q0 -30 5 -56.5t12 -49.5l-122 -5q-16 31 -26 65.5t-10 68.5q0 50 18.5 96.5t52 83t79 58.5t99.5 22q87 0 148.5 -16t102.5 -42.5t66 -61.5t38 -73.5t16 -77t3 -73.5q0 -73 -39 -140.5t-102.5 -118t-142.5 -81
t-157 -30.5l-198 11q-28 0 -40.5 -14t-12.5 -31q0 -36 17.5 -70t47 -59t69.5 -40.5t85 -15.5q82 0 176.5 28t189.5 91.5t187.5 166t172 253.5t142 354.5t97.5 466.5z" />
    <glyph glyph-name="bn_currency4" unicode="&#x9f7;" horiz-adv-x="437" 
d="M185 1523q50 0 78.5 -57.5t28.5 -157.5v-929q0 -48 12.5 -69.5t59.5 -21.5h3q0 -158 -101 -158q-116 0 -116 232v904q0 106 -87 106q17 151 122 151z" />
    <glyph glyph-name="bn_currencyless" unicode="&#x9f8;" horiz-adv-x="1010" 
d="M127 614v658q0 105 -80 105v142q58 23 103 23q57 0 88 -52t31 -163v-697q0 -63 32 -63q41 0 69 42t52.5 104t50 135t60.5 135t84 104t119 42q25 0 50 -13t44.5 -39.5t32 -65.5t12.5 -90v-551q0 -23 1.5 -40t8.5 -28.5t21.5 -17t38.5 -5.5v-141q-57 -41 -101 -41
q-53 0 -82 71.5t-29 185.5v569q0 64 -28 64q-21 0 -41 -42t-43.5 -104t-52 -135t-67 -135t-88.5 -104t-115 -42q-43 0 -74.5 19.5t-53.5 48t-32 61.5t-11 60z" />
    <glyph glyph-name="bn_currency16" unicode="&#x9f9;" horiz-adv-x="905" 
d="M119 876q0 96 37.5 182.5t102 151t149.5 103t181 38.5q122 0 214 -34.5t154 -94.5t93 -141.5t31 -175.5q0 -98 -29 -187.5t-89 -160t-151.5 -112t-217.5 -41.5q-108 0 -196 31.5t-150 91.5t-95.5 145t-33.5 191v13zM940 876q0 64 -22.5 124t-63.5 106.5t-98.5 75
t-127.5 28.5q-83 0 -150.5 -28t-116 -74.5t-74.5 -107t-26 -127.5q0 -81 31.5 -142t81.5 -102.5t108.5 -62.5t114.5 -21q64 0 126.5 30t110.5 77t77 106t29 118z" />
    <glyph glyph-name="bn_isshar" unicode="&#x9fa;" horiz-adv-x="990" 
d="M559 1366q-69 0 -100 40t-31 98q0 34 11.5 59.5t31 42.5t44 25t49.5 8q26 0 51 -9t45 -26.5t32.5 -43.5t12.5 -62q0 -24 -10.5 -48t-29 -42.5t-45.5 -30t-61 -11.5zM1449 1874q-46 0 -88.5 -36.5t-84.5 -96t-86 -135.5t-92.5 -155t-104.5 -155.5t-123 -136t-146.5 -96
t-175.5 -36.5q-120 0 -210 54t-154.5 138t-107 185t-68.5 194h142q7 -13 11 -25t10 -25q25 -66 54.5 -133.5t73.5 -122t105.5 -89t148.5 -34.5q67 0 127.5 36.5t117.5 96t110 135.5t105 155t102.5 155.5t102.5 136t106 96t111 36.5z" />
    <glyph glyph-name="bn_initekaar" horiz-adv-x="744" 
d="M878 161q-42 -85 -106.5 -123.5t-153.5 -38.5q-81 0 -148 27.5t-119 76t-106 114t-79 140.5t-38 155.5t-13 159.5q0 93 20 190.5t65.5 189t109 174.5t140 150t164.5 112.5t182 62.5v-142q-280 -117 -409.5 -314t-125.5 -462q0 -67 8 -115t28 -98.5t55 -106.5t77.5 -90
t81 -58.5t80.5 -24.5q32 0 55.5 5t43.5 16.5t38 31t40 47.5q39 -33 110 -79z" />
    <glyph glyph-name="bn_initaikaar" horiz-adv-x="691" 
d="M14 2110q-38 -82 -38 -116q0 -97 137 -97q17 0 38 1t41.5 2.5t39 3t26.5 1.5q139 -3 229.5 -28t143 -81.5t73.5 -149t21 -230.5q-108 -65 -196.5 -149t-152 -181.5t-98 -207t-34.5 -223.5q0 -87 22.5 -178t63 -166t96.5 -123t122 -48q28 0 49 3.5t40.5 14.5t40 30.5
t44.5 51.5q39 -33 111 -79q-42 -85 -106.5 -123.5t-154.5 -38.5q-72 0 -135.5 28t-115.5 77t-92.5 112t-69 135t-42.5 145.5t-14 142.5q0 122 33 246.5t95 238.5t149 213t195 172q0 75 -12 121.5t-43 72t-84 34.5t-132 9q-137 0 -202.5 2t-87.5 7q-52 11 -86.5 42.5t-55 68
t-29.5 71.5t-9 54q0 100 58 185z" />
    <glyph glyph-name="bn_reph" horiz-adv-x="3" 
d="M-562 1562l-87 105l784 670l89 -105z" />
    <glyph glyph-name="bn_kaphala" horiz-adv-x="216" 
d="M-205 1401v142h468v-142h-468zM200 609q0 -114 -67 -180t-188 -86l-80 111l16 -3q33 0 64.5 13.5t56.5 36.5t40.5 52.5t15.5 63.5q0 38 -21.5 76.5t-54.5 70t-68 54t-71.5 37.5t-109.5 27v-933h-142v191q-45 95 -96 164.5t-115 114.5t-143 67.5t-182 22.5h-9l-91 132
q64 57 112.5 99.5t91.5 75.5t84 58.5t90 49.5t109 47.5t149 51.5q124 7 235 -23.5t194 -86.5t131.5 -133t48.5 -171zM-409 882q-111 -27 -218 -87.5t-217 -161.5q84 -12 141.5 -27t103 -40.5t89.5 -65.5t101 -104v486z" />
    <glyph glyph-name="bn_nnaphala" horiz-adv-x="4" 
d="M-342 1048h142v-1048h-142v185q-8 27 -31.5 66t-55.5 80.5t-70.5 82.5t-75.5 73.5t-70.5 52.5t-58.5 20q-114 0 -182.5 -71t-68.5 -201q0 -104 44 -157.5t138 -53.5l27 3l50 -133q-29 -4 -55.5 -7t-49.5 -3q-61 0 -115 29t-94.5 77.5t-63 112t-22.5 132.5q0 79 27.5 154
t77.5 132.5t120 92.5t154 35q57 0 111.5 -21.5t103 -61.5t89.5 -94.5t71 -120.5v644z" />
    <glyph glyph-name="bn_taphala" horiz-adv-x="3" 
d="M4 551q0 -100 -34.5 -181.5t-100 -139t-160.5 -89.5t-215 -32q-96 0 -187 37.5t-173.5 100t-154 147.5t-129 180.5t-98 196.5t-60.5 197l142 22q36 -154 109.5 -289t166.5 -235t198 -157.5t206 -57.5q70 0 133.5 22.5t111 63.5t75.5 99t28 128q0 46 -16.5 93.5t-47 84.5
t-71 60.5t-86.5 23.5q-35 0 -68 -10t-59 -28.5t-42 -45.5t-16 -59q0 -27 13 -54t33 -54l-114 -86q-74 94 -74 197q0 59 26.5 110.5t73 90t110 60t136.5 21.5t135.5 -34t109 -91t73 -133t26.5 -159z" />
    <glyph glyph-name="bn_thaphala" horiz-adv-x="3" 
d="M-1058 230v140q147 -16 237 -16q88 0 153 4.5t104 16.5q36 12 78 35t77 56.5t58.5 75t23.5 88.5q0 202 -267 202q-97 0 -166.5 -63t-112.5 -194l-137 34q87 364 469 364q70 0 134.5 -27t114 -73.5t78.5 -109t29 -133.5q0 -86 -41 -159.5t-108.5 -127t-154.5 -83.5
t-181 -30q169 -90 367 -232t425 -341l-95 -97q-328 301 -937 653z" />
    <glyph glyph-name="bn_thaphala1" horiz-adv-x="312" 
d="M58 -147v123q-76 85 -143.5 153.5t-138 120.5t-150.5 86.5t-180 50.5l-93 122q135 17 223.5 39t140.5 52t73 71.5t21 96.5q0 81 -46.5 121t-123.5 40q-35 0 -71 -8t-65 -24.5t-48 -40.5t-19 -57q0 -34 15 -50t38 -16q4 0 11.5 1.5t14.5 3.5v-110h-34q-31 0 -64 11.5
t-60 32.5t-44.5 51t-17.5 68q0 70 33.5 123t85 88.5t113 53t117.5 17.5q58 0 113.5 -23t98 -64.5t69 -101t26.5 -132.5q0 -50 -19.5 -100t-52 -91t-76.5 -70t-93 -37q54 -21 100 -49t88 -63.5t80.5 -77t77.5 -90.5v1227h-105v142h105v188h142v-188h170v-142h-170v-1548h-142
z" />
    <glyph glyph-name="bn_dhaphala" horiz-adv-x="418" 
d="M-284 586l-317 -196q16 -4 97 -48.5t220 -148.5v393zM-142 1013v-208q154 71 223 71q75 0 105.5 -50.5t35.5 -189.5v-636h-142v602q1 76 -12 131q-78 0 -210 -76v-768h-142v58q-43 69 -82 115.5t-89.5 84.5t-122 73t-181.5 81l-25 136l500 326v250h142zM-7 1543h470v-142
h-470v142z" />
    <glyph glyph-name="bn_naphala" horiz-adv-x="3" 
d="M-1184 24q-28 0 -54.5 -10.5t-46.5 -30t-32.5 -45.5t-12.5 -54q0 -24 4 -42t16.5 -32.5t36.5 -29t65 -31.5l-39 -116q-53 1 -95 21.5t-70 53.5t-44 78t-16 98t24.5 103.5t65 90t94 64t111.5 24.5q128 0 228 -71.5t197 -202.5v263h142v-565h-142v33q-169 401 -432 401z
" />
    <glyph glyph-name="bn_below_ba" horiz-adv-x="0" 
d="M-747 -525v140q-28 46 -72.5 84.5t-97 65t-111.5 41t-117 14.5l-90 133q105 109 226.5 195.5t259.5 152.5h143v-826h-141zM-747 132q-145 -76 -284 -182q205 -76 284 -163v345z" />
    <glyph glyph-name="bn_bhaphala" horiz-adv-x="0" 
d="M-35 564q0 -97 -40.5 -181.5t-113.5 -147t-174 -98.5t-223 -36q-76 0 -151.5 31t-147 85t-135.5 127t-116.5 155.5t-91 171.5t-57.5 175h142q37 -137 102 -248.5t145.5 -190.5t168.5 -121.5t176 -42.5q73 0 140.5 26.5t119.5 71.5t83 107t31 135q0 27 -6.5 61.5
t-21.5 77.5l-133 -150q-39 -35 -82.5 -58t-93.5 -23q-42 0 -78 17t-63 45.5t-42.5 66t-15.5 79.5q0 84 46 120t139 36l27 -106q-70 -8 -70 -55q0 -31 12 -46t47 -15q46 7 83 36t73.5 69.5t78 87.5t95.5 92q65 -85 106 -173.5t41 -180.5z" />
    <glyph glyph-name="bn_raphala" horiz-adv-x="0" 
d="M-1031 -243q-17 0 -49.5 -7.5t-77.5 -16t-127 -10.5q-111 0 -196.5 29t-143.5 81t-88.5 123.5t-30.5 156.5q0 54 12.5 113.5t39.5 121.5l127 -33q-39 -122 -39 -172q0 -76 20.5 -128.5t66 -86t120 -48.5t177.5 -12q26 3 54.5 8t55 11t51.5 9t49 3q81 0 154 -33t140 -85
v628h142v-960h-142v147q-28 33 -66.5 62t-81 51t-86.5 35t-81 13z" />
    <glyph glyph-name="bn_laphala" horiz-adv-x="3" 
d="M-306 50v111q0 37 -3 44q-4 18 -11 39t-18.5 37.5t-27.5 28t-38 11.5q-20 0 -33 -8t-21 -21t-11.5 -28.5t-3.5 -31.5q0 -19 4.5 -38t12.5 -33l-116 -42q-14 54 -38.5 102t-56.5 83.5t-70 56.5t-78 21q-36 0 -66 -12t-53 -33.5t-36.5 -51t-13.5 -61.5t7.5 -54.5
t25.5 -37.5t50.5 -24t82.5 -16l44 -126q-36 -7 -50 -8q-9 -1 -17 -3q-62 0 -114 20t-90 55.5t-59.5 86t-21.5 113.5q0 53 26.5 106t69 95t94.5 67.5t104 25.5q69 0 135.5 -39t132.5 -112q23 43 58 66.5t81 23.5q54 0 119 -65v578h142v-926h-142z" />
    <glyph glyph-name="bn_half_ka" horiz-adv-x="1308" 
d="M647 1191q-15 0 -47.5 -10.5t-73 -26.5t-84.5 -36t-83 -39t-68.5 -36.5t-42.5 -27.5q87 0 149 -6.5t108 -23t79.5 -42.5t62.5 -64v273v39zM647 602v105q-44 58 -80 94.5t-85 57t-117.5 28t-174.5 7.5l-110 145q66 56 124.5 95t122 71.5t140.5 62t180 64.5v69h-700v142
h1404v-142h-563v-69q84 0 155 -30t123 -80t81 -115t29 -134q0 -46 -17 -86.5t-46 -71.5t-67 -49t-79 -18q-107 0 -146 165l100 44q20 -67 52 -67q21 9 33 24.5t18 30t8 25t2 11.5q0 102 -65.5 156t-180.5 54v-589h-141z" />
    <glyph glyph-name="bn_half_kha" horiz-adv-x="923" 
d="M718 562q-13 32 -45 70.5t-75 78.5t-94.5 77t-102 66.5t-97 48.5t-80.5 23l-84 138q57 8 116.5 27.5t107.5 46.5t78.5 62t30.5 74q0 23 -4.5 48t-22.5 39q-3 -30 -24.5 -65t-56 -65.5t-78.5 -51.5t-91 -21q-35 0 -68.5 17t-58 44t-40.5 59.5t-16 64.5q0 35 11 66t34 56
l119 -43q-15 -22 -18.5 -41t-3.5 -30q0 -4 3 -12.5t9 -16.5t17.5 -15t28.5 -7q21 0 42.5 7t45.5 31t52.5 69.5t63.5 122.5q34 -15 69 -42t63.5 -61.5t46.5 -74.5t18 -78q0 -46 -22 -88.5t-57 -76.5t-79 -58.5t-86 -32.5q80 -30 165.5 -91.5t182.5 -155.5v943h142v-171h166
v-142h-166v-958h-142v119z" />
    <glyph glyph-name="bn_half_ga" horiz-adv-x="818" 
d="M976 815v100q-205 492 -514 492q-54 0 -107 -22t-94 -59t-66.5 -87t-25.5 -108v-12q0 -8 2 -27q9 3 37 24.5t68 46.5t85 45t87 20t81 -16t68 -44.5t46.5 -65.5t17.5 -79q0 -56 -31 -120.5t-82 -137.5q-13 -14 -58.5 -65.5t-122.5 -140.5l-104 90q87 99 137.5 157t77 94.5
t34.5 61t8 56.5q0 27 -25 48t-52 21q-11 0 -31.5 -10.5t-44.5 -25t-51 -33t-50.5 -33t-42 -25t-25.5 -10.5q-76 0 -123.5 53.5t-47.5 146.5q0 81 36 152t94.5 124.5t133.5 83.5t155 30q85 0 166.5 -27.5t151 -76t125 -116t87.5 -146.5v369h142v-728h-142z" />
    <glyph glyph-name="bn_half_gha" horiz-adv-x="846" 
d="M171 979l150 160q-9 -2 -19 -2h-17q-39 0 -77 14.5t-68.5 40.5t-49 59t-18.5 68q0 20 8.5 41.5t27.5 40.5h-158v142h929v-142h-77v-958h-142v127q-27 64 -73.5 119.5t-107.5 97.5t-131.5 71t-145.5 41zM251 1401q-20 -16 -29 -33.5t-9 -35.5q0 -20 13.5 -38t34.5 -31
t48 -20.5t55 -7.5q38 0 72 15.5t53 49.5l67 -111q-31 -29 -56 -53t-49 -47.5t-50 -49.5t-58 -60q44 -16 76 -27t57 -21t45 -21.5t40.5 -27t44 -38.5t54.5 -56v613h-409z" />
    <glyph glyph-name="bn_half_nga" horiz-adv-x="747" 
d="M867 1424q-54 -2 -107 -28t-106 -82q35 -32 77.5 -50.5t88.5 -18.5q24 0 52.5 7.5t51.5 21t38.5 30t15.5 37.5q0 83 -111 83zM-26 1543h888q66 0 114.5 -9.5t80.5 -32.5t47.5 -62t15.5 -98q0 -49 -22.5 -92t-61 -75.5t-90.5 -51.5t-110 -19q-65 0 -127.5 29t-126.5 68
q-49 -136 -49 -221q0 -158 97 -158q37 0 63 6.5t50 29t50.5 66.5t65.5 116q127 -62 194.5 -159t67.5 -236q0 -167 -100.5 -251t-296.5 -84q-101 0 -191 46t-165.5 122t-136 175t-103 205t-65 211t-22.5 196l142 27q0 -85 21 -180.5t58 -188.5t89 -178t114.5 -150.5
t133.5 -104t147 -38.5q235 0 235 201q0 123 -75 197q-52 -81 -115.5 -125.5t-136.5 -44.5q-59 0 -106.5 21t-82 58.5t-52.5 88.5t-18 110q0 105 37 217.5t111 226.5h-569v142z" />
    <glyph glyph-name="bn_half_ca" horiz-adv-x="852" 
d="M288 1322q36 -46 61.5 -75t54 -47.5t65.5 -28t95 -17.5q106 -15 143 -38q31 -18 55 -51.5t24 -83.5q0 -79 -51.5 -165.5t-140.5 -182.5q-178 -186 -320 -186q-31 0 -51.5 7.5t-35 18t-24 23t-17.5 21.5v884h-196v142h949v-142h-611v-79zM288 589q45 0 102.5 40.5
t137.5 125.5q39 41 62 72.5t35 57t15.5 47.5t3.5 47q0 47 -72 63q-40 12 -80 16t-76.5 11t-68.5 22t-59 48v-550z" />
    <glyph glyph-name="bn_half_ca1" horiz-adv-x="741" 
d="M-69 1543h845v-142h-430v-87q44 -76 114.5 -145t154.5 -120t176.5 -81.5t181.5 -30.5q11 -23 17 -48.5t6 -56.5q0 -77 -25 -157t-68.5 -155.5t-103 -141.5t-128 -116t-142.5 -79t-147 -29q-89 50 -133.5 104t-44.5 135v1008h-273v142zM404 296q47 0 99 23t102 62t95 91
t79.5 108.5t55 116t20.5 113.5q-312 50 -509 306v-720q0 -50 13.5 -75t44.5 -25z" />
    <glyph glyph-name="bn_half_cha" horiz-adv-x="1114" 
d="M279 1050q13 -20 27 -32t31 -12q29 0 55 8t47 23t34 36.5t13 48.5q0 32 -32 36h-56q-43 0 -65.5 17.5t-53.5 57.5v-183zM622 686q60 -30 100.5 -49.5t70 -35t54 -30.5t52 -36.5t62.5 -52t87 -76.5l-67 -141q-62 72 -147 135.5t-181.5 110.5t-197 73t-194.5 26h-15v142
h141q95 5 164 35t113.5 69t66 82t21.5 77q0 16 -2.5 33.5t-11 33.5t-24 28t-42.5 16l-42 8q-5 -57 -32 -106t-68 -85.5t-92 -57.5t-103 -21q-29 0 -62.5 12t-64 31t-50.5 42.5t-20 48.5v403h-172v142h1203v-142h-887q24 -42 51 -65.5t63 -38.5q21 -2 53.5 -7.5t67.5 -10.5
t70 -9t62 -4h18q9 0 16 3q43 0 81.5 -21t67 -56t45.5 -82.5t17 -99.5q0 -50 -18.5 -99.5t-53.5 -92.5t-85 -77.5t-115 -54.5z" />
    <glyph glyph-name="bn_half_ja" horiz-adv-x="905" 
d="M1018 1401h-282q23 -93 124 -144t282 -51q-17 -48 -28 -73t-18.5 -38.5t-11.5 -18.5t-8 -12q-173 0 -295 62.5t-198 200.5q-47 -53 -75.5 -87t-42.5 -62t-18 -53t-4 -57q0 -87 98 -87q69 0 222 87q43 -19 75.5 -53t53.5 -77t31 -93.5t10 -103.5q0 -65 -25.5 -123.5
t-72.5 -103t-113 -71t-147 -26.5q-108 0 -188.5 36.5t-139 100t-98.5 149t-65.5 185.5t-41 207.5t-26.5 215.5l142 21q1 -89 12 -180.5t32.5 -178t54.5 -161.5t79.5 -131.5t107.5 -89t136 -32.5q53 0 93 17t66 46.5t39 67.5t13 81q0 17 -3.5 41t-10 47t-16 42.5t-23.5 30.5
q-50 -48 -101.5 -70t-103.5 -22q-51 0 -93.5 16.5t-74.5 50t-49.5 83t-17.5 116.5q0 27 14.5 70.5t36 88t48.5 83t51 53.5h-520v142h1090v-142z" />
    <glyph glyph-name="bn_half_jha" horiz-adv-x="1161" 
d="M594 1214q-24 -3 -75.5 -22t-106 -44.5t-101 -52.5t-63.5 -45q50 -9 102 -28.5t99.5 -48.5t85 -67t59.5 -83v391zM905 553v49q-17 28 -31 48t-32.5 37.5t-43 35.5t-62.5 42v-322h-142v174q-16 36 -46.5 74t-70.5 74.5t-85.5 67.5t-94.5 55.5t-97.5 38t-91.5 13.5l-53 141
q114 96 249 165.5t290 111.5v43h-644v142h786v-603q31 -17 72 -58t97 -106v941h141v-174h172v-142h-172v-848h-141z" />
    <glyph glyph-name="bn_half_nya" horiz-adv-x="1523" 
d="M1004 1010q26 -31 61 -68t73.5 -69.5t79 -54.5t77.5 -22q27 0 43.5 6.5t25.5 16t11.5 20.5t2.5 21q0 38 -9.5 61.5t-27 37t-42.5 18t-56 4.5q-21 0 -40.5 -0.5t-37.5 -4.5v155q19 -4 36.5 -4.5t39.5 -0.5q32 0 56.5 3.5t40.5 15t24 31.5t8 54t-18 52.5t-51 18.5
q-55 0 -127 -59t-170 -178v-54zM1519 857q0 -105 -52 -153.5t-152 -48.5q-39 0 -84.5 15.5t-88 40.5t-79 56.5t-59.5 64.5v-381h-141q0 156 -75 209q-37 27 -158.5 34.5t-331.5 7.5q-71 4 -118.5 29.5t-75.5 68t-40.5 99.5t-12.5 122q0 66 13 132t36 116l132 -19
q-25 -81 -32 -143.5t-7 -108.5q0 -49 17 -79.5t42.5 -46.5t57.5 -22t60 -6q13 0 51.5 0.5t83 2t88 2t67.5 0.5q30 0 57 -10.5t52 -27.5t48.5 -36.5t45.5 -36.5v628q0 10 -5.5 22t-13.5 23t-17.5 17.5t-19.5 6.5q-35 0 -63 -8q-29 -8 -66 -36.5t-71.5 -65t-58 -75
t-23.5 -66.5q0 -22 9.5 -38.5t32.5 -16.5q20 0 37 8.5t29 23.5l66 -97q-35 -31 -79 -54t-98 -23q-44 0 -71 18t-42.5 46t-20.5 61t-5 62q0 36 20 79t52 87.5t74 87t86.5 75.5t87 53.5t77.5 20.5q52 0 93.5 -13t70.5 -48.5t44.5 -99t15.5 -163.5q60 58 100.5 95t73 58.5
t61.5 29t65 7.5q43 0 81 -17t65.5 -45t44 -67.5t16.5 -83.5q0 -100 -85 -177q93 -101 93 -196z" />
    <glyph glyph-name="bn_half_tta" horiz-adv-x="834" 
d="M293 747q0 -54 17.5 -81t45.5 -27q58 0 114 38t101 98.5t72 132.5t27 140q0 71 -58 71q-15 0 -34 -6.5t-45 -23.5l-58 114q35 31 70 44.5t69 13.5q33 0 68 -13.5t64 -41t47 -69t18 -98.5q0 -55 -19.5 -116.5t-52.5 -122t-77.5 -115.5t-95 -96.5t-104.5 -66.5t-106 -25
q-39 0 -75.5 21.5t-65.5 56t-46.5 78.5t-17.5 88v660h-196v142h728q8 28 8 55q0 52 -45 76t-134 27l-304 -26q-80 0 -134.5 16.5t-87.5 44.5t-47.5 68.5t-14.5 89.5q0 61 68 140l124 -58q-50 -59 -50 -108q0 -17 15 -27t37 -15.5t48.5 -7t49.5 -1.5h45l301 26q52 0 99.5 -25
t84 -65.5t57 -92.5t20.5 -106v-11h95v-142h-625v-654z" />
    <glyph glyph-name="bn_half_ttha" horiz-adv-x="799" 
d="M504 1247q0 -79 -26 -155.5t-71 -141t-106.5 -112t-131.5 -67.5q0 -110 51 -166.5t153 -56.5q51 0 96 32t78 83t53 116.5t20 133.5q0 85 -29 167t-87 167zM567 1401q28 -47 48.5 -80t34.5 -58.5t24 -46.5l20 -42q31 -68 49 -144t18 -157q0 -75 -25 -157.5t-74 -151.5
t-120.5 -113.5t-164.5 -44.5q-68 0 -131.5 29t-112 78.5t-77.5 113.5t-29 133q0 38 17 65t42.5 47t57 37t60.5 37q57 40 90 87t49 97t20 98t4 88q0 38 -17.5 58.5t-28.5 26.5h-345v142h325q-77 93 -110.5 173t-33.5 150q0 120 109 258l116 -56q-31 -39 -48 -66t-25 -46
t-9.5 -33t-1.5 -29q0 -23 9 -56t30.5 -76t59.5 -98t96 -121h348v-142h-274z" />
    <glyph glyph-name="bn_half_dda" horiz-adv-x="1111" 
d="M589 1056q0 -46 39 -46q25 0 63 28t75 66.5t67.5 78t42.5 62.5q37 -25 71 -64t61 -87.5t43.5 -105t16.5 -117.5q0 -77 -37 -152.5t-99.5 -136t-142.5 -96.5t-167 -36q-102 0 -182 39t-141 105.5t-105 154.5t-76 184t-51.5 193.5t-31.5 187.5h142q24 -196 69.5 -334
t104 -224t129.5 -125.5t148 -39.5q58 0 112 26t95 68.5t66 97.5t25 113q0 42 -13 74.5t-42 74.5q-21 -32 -49 -63.5t-61 -57t-70.5 -41t-73.5 -15.5q-39 0 -71 14t-54 34.5t-33.5 45t-11.5 44.5v395h-529v142h1235v-142h-564v-345z" />
    <glyph glyph-name="bn_half_ddha" horiz-adv-x="807" 
d="M849 1401h-603v-746q0 -33 4 -51.5t12 -29.5t21 -16.5t32 -9.5q59 7 115 51t100 107t71 139.5t27 149.5q0 35 -14.5 55.5t-43.5 20.5q-27 0 -77 -34l-62 110q85 65 144 65q31 0 65.5 -10t63 -35t47 -68t18.5 -109q0 -60 -19.5 -126t-52.5 -131t-78 -124.5t-95.5 -104
t-104 -71.5t-104.5 -27q-38 0 -76 21t-67.5 55.5t-48.5 78.5t-19 88v752h-189v142h934v-142z" />
    <glyph glyph-name="bn_half_nna" horiz-adv-x="572" 
d="M791 1056q-7 27 -30 66t-55 81.5t-70.5 84.5t-76.5 75t-72.5 54t-58.5 21q-116 0 -185 -71.5t-69 -202.5q0 -212 185 -212l28 2l48 -131q-27 -6 -53.5 -9.5t-49.5 -3.5q-61 0 -115.5 29t-95.5 77.5t-65 112t-24 132.5q0 80 28.5 155.5t79 134t121 93.5t153.5 35
q57 0 111.5 -22t103.5 -61t90 -94.5t72 -121.5v-224z" />
    <glyph glyph-name="bn_half_ta" unicode="&#x9ce;" horiz-adv-x="1008" 
d="M934 42q30 53 34 135q0 202 -424 409q-147 73 -237.5 124t-124.5 78q-152 127 -152 349q0 90 35 165.5t96.5 131t145 86.5t182.5 31q79 0 148.5 -23.5t121 -66t81 -102t29.5 -132.5q0 -51 -25 -99t-65.5 -85t-91 -59.5t-101.5 -22.5q-64 0 -116.5 24.5t-94.5 68.5
t-71 104t-43 133l129 36q6 -49 22 -90t41.5 -70.5t59.5 -46.5t76 -17q28 0 53 11.5t44.5 30.5t30.5 43t11 51q0 88 -70.5 129t-209.5 41q-61 0 -112 -20.5t-87.5 -57t-57 -88t-20.5 -112.5q0 -70 22 -123.5t59 -95t85.5 -74t104 -59.5t114 -51.5t114.5 -49.5
q218 -103 329 -228.5t111 -272.5q0 -19 -7.5 -63.5t-34.5 -105.5z" />
    <glyph glyph-name="bn_half_tha" horiz-adv-x="942" 
d="M849 1717v-174h161v-142h-161v-958h-142v143q-71 78 -129 131.5t-117.5 88t-128.5 55.5t-161 35l-89 152q125 17 200.5 44t116.5 59t54.5 67.5t13.5 72.5q0 45 -39 77.5t-109 32.5q-65 0 -106.5 -19t-41.5 -50q0 -20 14.5 -27.5t35.5 -7.5q4 0 9.5 1.5t12.5 4.5v-147h-72
q-24 0 -49 11.5t-45 31.5t-33.5 48.5t-13.5 63.5q0 57 26 100t68.5 72.5t94.5 44.5t105 15t104 -16t91 -49.5t65 -83t25 -117.5q0 -47 -19 -94.5t-50 -86t-72 -66t-86 -35.5q50 -19 93 -38t82.5 -42.5t76.5 -55t73 -76.5v934h142z" />
    <glyph glyph-name="bn_half_da" horiz-adv-x="842" 
d="M373 1018q219 166 596 237l79 -103q-16 -67 -26 -130.5t-12.5 -126t3 -126t20.5 -130.5h-141q-9 55 -15 114.5t-6 120.5t8.5 120.5t27.5 113.5q-132 -18 -275.5 -93.5t-287.5 -191.5l-113 53v525h-297v142h973v-142h-534v-383z" />
    <glyph glyph-name="bn_half_dha" horiz-adv-x="854" 
d="M647 1242q-7 -3 -12.5 -5.5t-10.5 -5.5q-53 -27 -98 -50.5t-85.5 -48t-79 -52t-79.5 -62.5q51 -26 86.5 -42.5t61.5 -29.5t48 -25t44.5 -29t52.5 -40.5t72 -60.5v451zM647 1396v147h302v-142h-161v-958h-141v169q-65 64 -121 114t-113.5 90t-122.5 71t-147 55l-54 84
l182 138q-47 12 -75.5 40.5t-44.5 62t-21.5 66t-5.5 52.5q0 35 13.5 66t40.5 55t66 37.5t91 13.5q39 0 75 -27t63 -84l-77 -88q-11 24 -28 41t-44 17q-15 0 -25.5 -7.5t-18 -18t-11 -23.5t-3.5 -24q0 -31 35.5 -46t107.5 -33z" />
    <glyph glyph-name="bn_half_na" horiz-adv-x="522" 
d="M387 1018q-60 0 -92 -39t-32 -89q0 -35 61 -99l-92 -78q-110 78 -110 191q0 54 20 101.5t56.5 81t85.5 53.5t106 20q146 0 312 -212v453h-826v142h968v-1054h-142v202q-77 155 -154 241t-161 86z" />
    <glyph glyph-name="bn_half_pa" horiz-adv-x="921" 
d="M887 1319q-154 130 -248 130q-179 0 -254 -125q50 0 95.5 -14.5t80 -43t57 -69.5t26.5 -94q59 51 118.5 105t124.5 111zM1079 948v160q-31 42 -106 122l-434 -396l-80 89q38 26 55 60.5t17 72.5q0 29 -9.5 56t-27 49t-42 34.5t-54.5 12.5q-21 0 -45 -6.5t-49 -24.5
l-96 100q12 62 51 116t94 94t119 63t127 23q256 0 477 -262v232h548v-142h-406v-453h-139z" />
    <glyph glyph-name="bn_half_pha" horiz-adv-x="1156" 
d="M639 401v135q-25 57 -77 111.5t-118 100.5t-139.5 79t-141.5 46l-58 72q73 57 140.5 112t131.5 109q-34 50 -102 109.5t-170 125.5h-155v142h1274v-142h-905q125 -83 198 -193v-74q-47 -46 -101 -92t-115 -94q57 -19 103 -38t85.5 -44.5t75.5 -60t74 -83.5v616q8 1 22 2
t29 1h28h20q80 0 153 -18.5t129 -60.5t89 -108t33 -162q0 -29 -11 -63t-30.5 -62.5t-48.5 -47t-65 -18.5q-15 0 -52 5t-67 17l39 137q16 -18 38 -18q55 0 55 71q0 99 -52.5 139t-167.5 40v-791h-141z" />
    <glyph glyph-name="bn_half_ba" horiz-adv-x="747" 
d="M589 1174q-33 -6 -82 -23t-100 -38.5t-95.5 -46t-65.5 -45.5q37 -3 90 -25.5t103.5 -55.5t91.5 -71.5t58 -74.5v380zM730 401h-141v174q-9 30 -35 68.5t-63 78t-83 77.5t-93.5 68.5t-92.5 48.5t-82 18h-16q-7 0 -11 -2l-66 107q126 96 260 166.5t282 113.5v82h-639v142
h910v-142h-130v-1000z" />
    <glyph glyph-name="bn_half_bha" horiz-adv-x="1095" 
d="M-47 1401v142h1186v-142h-1186zM580 1111q-33 27 -43.5 40t-22.5 13q-29 0 -39.5 -15t-10.5 -23q0 -30 3.5 -51.5t14.5 -35.5t32.5 -21.5t57.5 -7.5q37 0 66 10t55.5 36.5t54 73t62.5 120.5q57 -39 103 -75.5t78 -78.5t49 -91t17 -111q0 -99 -33 -173t-87 -124t-122 -75
t-137 -25q-131 0 -233 46.5t-183 143.5t-145 245.5t-121 352.5l142 -27q36 -142 90.5 -256t123.5 -195t149.5 -124.5t168.5 -43.5q52 0 97.5 20t78 57t51 90t18.5 117q0 27 -16 59t-50 63q-57 -93 -123 -135t-146 -42q-56 0 -104 21.5t-82 59.5t-52.5 87t-18.5 106
q0 32 10 61.5t29 52t44.5 36t57.5 13.5q22 0 57 -14.5t88 -43.5z" />
    <glyph glyph-name="bn_half_ma" horiz-adv-x="1261" 
d="M-63 1401v142h1360v-142h-268q39 -70 57 -143.5t18 -146.5q0 -59 -21 -112.5t-58 -95.5t-87.5 -66t-111.5 -24q-58 0 -126 22t-147 83q-160 121 -213 121q-89 0 -89 -49q0 -67 68 -67h12q5 0 12 3l-14 -142q-19 -1 -29 -4q-6 -1 -10 -1q-36 0 -69 18t-57.5 46.5t-39.5 65
t-15 72.5q0 38 16.5 70t44 56t62.5 39.5t72 19.5v21q0 20 -9 49.5t-22.5 60.5t-28 59t-28.5 45h-279zM454 1161q-2 0 16.5 -15t48 -38t68 -50t77.5 -49.5t75 -38.5t63 -16q161 0 161 183q0 73 -25 140.5t-73 123.5h-501q27 -31 49.5 -93t40.5 -147z" />
    <glyph glyph-name="bn_half_ya" horiz-adv-x="838" 
d="M348 1401q30 -20 57 -40t51.5 -42.5t46.5 -49.5t41 -61q-92 -71 -160.5 -132.5t-122.5 -112.5q54 -17 93 -29t69.5 -24t56 -26.5t50.5 -35t54 -50t68 -70.5v673h-304zM-61 1543h979v-142h-124v-1000h-142v150q-32 55 -87 107t-121 94t-137 71t-136 40l-91 113
q52 50 123 111.5t167 131.5q-3 5 -21 20.5t-45 36t-58 43t-59.5 40.5t-50 30t-28.5 12h-169v142z" />
    <glyph glyph-name="bn_half_ra" horiz-adv-x="3" 
d="M-562 1562l-87 105l784 670l89 -105z" />
    <glyph glyph-name="bn_half_la" horiz-adv-x="780" 
d="M942 758v184q-36 77 -73 124.5t-83 47.5q-38 0 -54.5 -23t-16.5 -46q0 -27 17 -56t42 -52l-104 -80q-57 87 -97.5 141t-77 83.5t-73 39.5t-82.5 10q-34 0 -64 -21t-54 -53t-37.5 -72.5t-13.5 -79.5q0 -46 22.5 -85.5t77.5 -56.5l-100 -93q-68 41 -104.5 108.5
t-36.5 163.5q0 69 28 129t75.5 105.5t109 71t127.5 25.5q59 0 118.5 -33t123.5 -98q32 51 78 82t98 31q42 0 80.5 -24t73.5 -78v248h-1061v142h1422v-142h-219v-643h-142z" />
    <glyph glyph-name="bn_half_sha" horiz-adv-x="927" 
d="M166 965q19 -19 43.5 -35.5t53.5 -16.5h14q28 5 52.5 24t42 45t27.5 56.5t10 59.5q0 71 -28.5 127t-76.5 95t-111 60t-132 21h-103v142h105q79 0 152 -14t133 -48.5t101 -91.5t55 -142q35 131 105.5 196.5t181.5 65.5q58 -6 100 -28.5t76.5 -56.5t65.5 -77.5t70 -93.5
v530h142v-240h262v-142h-262v-768h-142v335q0 24 -13.5 63.5t-38 84t-55.5 89.5t-67.5 81.5t-74 59.5t-74.5 23q-69 0 -112 -68t-43 -212q0 -32 14 -61t38 -50t54 -33.5t63 -12.5q46 0 88 31l66 -119q-43 -31 -84 -42t-76 -11q-83 0 -148 38t-112 123q-20 -42 -49 -76
t-63 -58t-70.5 -37t-71.5 -13q-47 0 -91.5 19t-88.5 65z" />
    <glyph glyph-name="bn_half_ssa" horiz-adv-x="1134" 
d="M868 1401q27 -38 40.5 -87t13.5 -106q0 -78 -40.5 -151t-105.5 -129.5t-145 -91t-158 -34.5q-60 0 -111.5 23.5t-89.5 63.5t-60 93t-22 113q0 97 36.5 176.5t108.5 129.5h-593v142h1442v-142h-316zM780 1208q0 27 -8 53.5t-25 48t-42 36.5t-58 17q-27 0 -70.5 -6.5
t-117.5 -48.5l263 -247q29 35 43.5 71.5t14.5 75.5zM385 1247q-27 -39 -40 -75.5t-13 -71.5q0 -29 11 -57.5t29 -50t43.5 -35t54.5 -13.5q102 -10 191 58z" />
    <glyph glyph-name="bn_half_sa" horiz-adv-x="1335" 
d="M1131 1258q0 23 -13 64.5t-50 78.5h-359q10 -54 32 -106.5t49.5 -95.5t82 -84t136.5 -38q130 20 122 181zM1273 1233q0 -59 -21 -108t-55.5 -94.5t-98 -73.5t-154.5 -21q-66 10 -107 39t-82 68.5t-76.5 98.5t-61.5 130q-47 -184 -113.5 -272.5t-147.5 -88.5
q-29 0 -65.5 19.5t-71 48.5t-61.5 63.5t-39 63.5l69 108q16 -27 37 -55.5t42 -52t41.5 -38.5t37.5 -15q27 0 52.5 28.5t45.5 72t32.5 95t12.5 97.5q0 15 -1.5 27.5t-4.5 27.5h-596v142h1567v-142h-240q23 -27 41 -67.5t18 -100.5z" />
    <glyph glyph-name="bn_half_ha" horiz-adv-x="871" 
d="M-50 1401v142h949v-142h-949zM887 251q-335 371 -763 512l-44 152q37 -12 65 -20t51.5 -12.5t45 -7t46.5 -2.5q20 0 43 1t54 4q54 4 102.5 20t85 43t58 62t21.5 76q0 33 -22.5 60t-55.5 46t-71.5 29t-71.5 10q-62 0 -104 -26t-42 -69q0 -22 15 -41.5t40 -42.5l-102 -82
q-48 31 -71.5 72.5t-23.5 101.5q0 48 29 90t73 73t95 48.5t95 17.5q52 0 115 -18t117 -54.5t90.5 -90.5t36.5 -124q0 -65 -18.5 -114.5t-55 -87t-91.5 -65.5t-128 -52q81 -55 147 -104.5t121.5 -96.5t102.5 -96t91 -104z" />
    <glyph glyph-name="bn_half_rra" horiz-adv-x="1037" 
d="M572 359q50 0 80.5 -31.5t30.5 -79.5q0 -50 -30.5 -80t-80.5 -30q-47 0 -78.5 30t-31.5 80q0 48 31.5 79.5t78.5 31.5zM536 1061q0 -39 11.5 -62.5t43.5 -30.5q12 1 30.5 17.5t40 41.5t44 54.5t42 58t33 51.5t18.5 33q33 -20 72 -53t72 -75.5t55.5 -94.5t22.5 -111
q0 -114 -38 -197t-101 -136t-144.5 -79t-167.5 -26q-95 0 -172 39.5t-137.5 106t-106.5 155.5t-77 189t-48 204t-21 203l142 -27q3 -134 37 -264.5t92 -233.5t137 -166.5t173 -63.5q63 0 116.5 25.5t92 65.5t60 88.5t21.5 94.5q0 47 -17 87t-52 79q-27 -59 -58 -99
t-64 -64.5t-66 -34.5t-66 -10q-36 0 -66 23.5t-51.5 58t-33 74t-11.5 71.5v348h-444v142h1103v-142h-517v-340z" />
    <glyph glyph-name="bn_half_rha" horiz-adv-x="807" 
d="M346 296q24 0 45.5 -10.5t38 -28t25.5 -40.5t9 -48q0 -52 -36.5 -87t-87.5 -35q-25 0 -47.5 10t-38.5 27t-25.5 40t-9.5 47q0 26 9.5 49t27 40t40.5 26.5t50 9.5zM868 1401h-636v-804q0 -25 2 -39.5t8 -25t19 -17t35 -11.5q63 4 120 45t100 101t68 129t25 128
q0 72 -58 72q-15 0 -34 -5.5t-44 -21.5l-61 106q74 62 147 62q36 0 70.5 -13.5t61.5 -40.5t43.5 -67t16.5 -94q0 -50 -15 -109.5t-42.5 -120.5t-67.5 -117t-89.5 -100t-108 -70t-124.5 -26q-43 0 -82.5 21.5t-68.5 56t-46 77t-17 85.5v799h-175v142h953v-142z" />
    <glyph glyph-name="bn_half_yya" horiz-adv-x="846" 
d="M315 1401q68 -42 120 -89t87 -98q-89 -77 -160.5 -139t-121.5 -112q79 -22 128 -39t89 -40t79.5 -57.5t96.5 -90.5v665h-318zM-42 1543h961v-142h-144v-1000h-142v150q-139 224 -478 312l-89 113q58 61 128.5 121.5t153.5 121.5q-104 103 -197.5 142.5t-166.5 39.5h-26
v142zM346 675q24 0 45.5 -10t38 -27.5t25.5 -40.5t9 -49q0 -27 -9 -49t-26 -40t-40 -27t-49 -9q-25 0 -47.5 10t-38.5 27.5t-25.5 40.5t-9.5 50q0 25 9.5 48t27 40t40.5 26.5t50 9.5z" />
    <glyph glyph-name="bn_half_asamira" horiz-adv-x="3" 
d="M-562 1562l-87 105l784 670l89 -105z" />
    <glyph glyph-name="bn_half_asamiba" horiz-adv-x="747" 
d="M589 1174q-33 -6 -82 -23t-100.5 -38.5t-96 -46t-67.5 -45.5q39 -3 91.5 -26t103.5 -56t92.5 -72t58.5 -76v383zM730 401h-141v174q-9 30 -35 68.5t-63 78t-83 77.5t-93.5 68.5t-92.5 48.5t-82 18h-16q-7 0 -11 -2l-66 107q126 96 260 166.5t282 113.5v82h-639v142h910
v-142h-130v-1000zM414 437q-25 44 -63.5 85t-84 75.5t-96.5 58.5t-104 35l61 132q53 -12 105.5 -37.5t99.5 -62t85.5 -80.5t63.5 -92z" />
    <glyph glyph-name="bn_khaphala" horiz-adv-x="483" 
d="M540 1548v-141h-298v-1476h-142v105q-51 44 -93 75.5t-80.5 55t-79.5 41t-92.5 32.5t-118.5 28.5t-156 29.5l-119 175q25 -3 41 -3h23q77 0 150.5 17.5t131 48t92.5 71t35 87.5q0 19 -9.5 49.5t-32.5 69.5q-88 -102 -174 -154t-174 -52q-34 0 -76.5 9t-80.5 30
t-63.5 57.5t-25.5 92.5q0 52 34 89t96 57l75 -77q-25 -8 -44 -31t-19 -43q0 -17 18 -29.5t64 -12.5q51 0 98 15t81 42.5t54.5 65.5t20.5 82q0 15 -4 34t-9 38.5t-10 38t-7 33.5q69 -26 129 -72.5t104.5 -104.5t70.5 -123t26 -128q0 -48 -15.5 -89t-50 -76t-90 -64
t-135.5 -51q90 0 191.5 -46.5t223.5 -138.5v1584h142v-241h298z" />
    <glyph glyph-name="bn_phaphala" horiz-adv-x="802" 
d="M-288 1026l114 -144l-8 -96l-277 -172q292 -96 486 -266v879q146 8 161 8q101 0 190.5 -24t156.5 -70t106 -111t39 -146q0 -55 -18.5 -103t-50.5 -83t-74.5 -56t-88.5 -21q-30 0 -59 6.5t-60 27.5l8 163q15 -27 41.5 -41t53.5 -14q41 0 74 28t33 80q0 56 -26 99t-67 71
t-94.5 42.5t-108.5 14.5q-19 0 -37 -1t-37 -5v-1111h-142v180q-174 241 -575 320l-109 149q10 9 92.5 64t240.5 158l-69 82zM-182 1401v142h1018v-142h-1018z" />
    <glyph glyph-name="bn_baphala1" horiz-adv-x="876" 
d="M-27 868q81 -20 164.5 -61.5t158.5 -94.5t134.5 -114.5t93.5 -122.5v670q-31 -10 -79.5 -30t-104 -45t-114.5 -54t-109.5 -56.5t-89 -51.5t-54.5 -40zM524 0v243q-26 57 -70.5 117t-100 115.5t-119 104.5t-129.5 85.5t-130.5 57.5t-123.5 21l-71 150q362 286 744 388v119
h-614v142h1040v-142h-284v-1401h-142z" />
    <glyph glyph-name="bn_maphala" horiz-adv-x="410" 
d="M-228 5q-12 0 -26.5 -6t-27.5 -16t-22 -22t-9 -24q0 -14 10.5 -25.5t26 -20t34 -13.5t36.5 -5l-46 -111q-40 0 -76.5 13.5t-65 37.5t-44.5 57.5t-16 74.5q0 39 21.5 75.5t56.5 64.5t81 45t94 17q80 0 152.5 -40t139.5 -112v1406h-184v142h531v-142h-205v-1802h-142v150
q0 46 -34.5 92t-84.5 82t-104.5 59t-95.5 23z" />
    <glyph glyph-name="bn_maphala1" horiz-adv-x="478" 
d="M140 1401h-328v142h675v-142h-205v-1401h-142v306q0 23 -26 64.5t-87 102.5q-49 48 -84 76.5t-64.5 44t-56 19.5t-57.5 4q-12 0 -27.5 -6t-28.5 -16t-21.5 -22.5t-8.5 -24.5q0 -69 108 -89l-48 -111q-44 0 -81 15.5t-64 42.5t-42 65t-15 82q0 45 21 81t56.5 61t81 38.5
t93.5 13.5q-75 137 -137 190l87 89q69 -63 118.5 -137t76.5 -161q11 -7 42.5 -31.5t66 -52.5t63 -54.5t34.5 -36.5v848z" />
    <glyph glyph-name="bn_yaphala" horiz-adv-x="671" 
d="M536 1401q-92 -100 -136 -190.5t-44 -181.5l81 -636q0 -91 -19.5 -158.5t-68.5 -122t-133.5 -99t-212.5 -87.5l-39 132q105 31 170.5 63t101 76.5t48 107t12.5 157.5q0 19 -6.5 62t-15 98.5t-19.5 118t-19.5 120.5t-14.5 105.5t-6 72.5q0 106 35 195.5t104 166.5h-439
v142h784v-142h-163z" />
    <glyph glyph-name="bn_k_ra" horiz-adv-x="1990" 
d="M-79 1401v142h2089v-142h-2089zM1942 728q0 -52 -24 -100t-68 -95l-96 111q48 17 48 78q-6 50 -20.5 83t-37 51.5t-53 26t-66.5 7.5q-61 0 -120.5 -32.5t-123.5 -100.5v-760h-141q0 76 -17.5 128.5t-62.5 85.5t-123 48t-198 15q-147 0 -259.5 5.5t-195 22.5t-138 48.5
t-88 84t-46.5 129t-14 183.5q0 97 80 324l113 -81q-53 -171 -53 -307q0 -77 16.5 -129.5t54 -84.5t99 -46t152.5 -14q19 0 71.5 0.5t115 2t123 2t93.5 0.5q80 0 148 -24t129 -71v797q0 92 -102 92q-29 0 -70.5 -19.5t-89 -52t-93.5 -75t-83.5 -89t-60.5 -94.5t-23 -90
q0 -50 24 -70.5t72 -20.5h17q8 0 19 2l-55 -140l-19 -3q-42 0 -78.5 18.5t-63.5 50t-42.5 75.5t-15.5 96q0 50 29 110.5t77 122.5t108.5 120t124 103t123.5 72t108 27q121 0 178 -79.5t57 -240.5v-91q151 91 287 91q57 0 106 -26t87 -69.5t59.5 -98t21.5 -109.5z" />
    <glyph glyph-name="bn_k_ra1" horiz-adv-x="1816" 
d="M1051 1134q-23 -3 -69.5 -18.5t-104 -39t-119 -52.5t-115.5 -58t-94 -54.5t-55 -43.5q69 -13 153.5 -53t164 -94.5t144 -119t95.5 -126.5v659zM1191 1274q108 -10 206 -50.5t173 -107t119.5 -157t44.5 -202.5q0 -46 -17 -95t-47.5 -90t-71.5 -67.5t-91 -26.5
q-39 0 -102 24t-122 78l88 108q39 -35 69 -51.5t47 -16.5q24 0 43.5 14.5t32.5 37.5t19.5 49.5t6.5 49.5q0 74 -35 140t-91.5 116t-127 78.5t-139.5 28.5h-5v-1134h-140v243q-17 46 -56.5 100.5t-93.5 110.5t-119 109t-132.5 93.5t-133.5 65.5t-122 25h-16t-16 -3l-76 150
q185 143 377.5 236t387.5 144v127h-1060v142h1867v-142h-667v-127zM735 42q-17 0 -49.5 -7.5t-77.5 -16t-127 -10.5q-111 0 -196.5 29t-143.5 81t-88.5 123.5t-30.5 156.5q0 54 12.5 113.5t39.5 121.5l127 -33q-39 -122 -39 -172q0 -76 20.5 -128.5t66 -86t113 -51.5
t139.5 -10q71 4 99.5 9t55 11t51.5 9t49 3q81 0 154 -33t140 -85v628h142v-960h-142v147q-28 33 -66.5 62t-81 51t-86.5 35t-81 13z" />
    <glyph glyph-name="bn_kh_ra" horiz-adv-x="1424" 
d="M772 22q-16 0 -51 -5.5t-74 -11.5t-75.5 -11t-54.5 -5q-111 0 -196.5 30t-143.5 82t-88.5 123.5t-30.5 154.5q0 57 13.5 114.5t39.5 120.5l129 -34q-19 -60 -28 -102.5t-9 -68.5q0 -76 19.5 -129t64.5 -86t118.5 -48.5t180.5 -15.5q22 0 49 5t54.5 12.5t54.5 13t50 5.5
q81 0 153 -33.5t140 -85.5v180q-18 46 -63 100t-105 108.5t-131.5 106.5t-142.5 94t-136 69.5t-113 32.5l-58 135q41 5 92 17t102 31t99.5 45t86 59t59.5 73t22 86q0 36 -17 72t-54 71q-31 -62 -62 -110t-68.5 -81t-86 -52t-115.5 -23q-48 0 -90.5 15t-75 41t-51 63.5
t-18.5 83.5q0 102 60 171l111 -63q-23 -30 -27 -56.5t-4 -41.5q0 -6 6 -17.5t19 -24t32 -21t43 -8.5q30 0 57 9.5t57 42.5t66.5 95.5t85.5 169.5q49 -20 98 -57t89 -85t65 -103t25 -109q0 -64 -31 -123.5t-80.5 -108t-110 -82t-119.5 -45.5q216 -82 484 -345v1319h143v-238
h233v-142h-233v-1686h-143v147q-29 33 -67 61t-81 50.5t-86 35.5t-81 13z" />
    <glyph glyph-name="bn_g_ra" horiz-adv-x="1437" 
d="M778 82q-17 0 -52 -5t-74.5 -11.5t-76 -11t-52.5 -4.5q-113 0 -198.5 29t-144 81t-89 123.5t-30.5 156.5q0 54 14 113t41 122l127 -36q-19 -59 -28.5 -102t-9.5 -70q0 -74 19.5 -126.5t65 -86t119 -49t180.5 -15.5q23 0 50 5.5t54.5 11.5t54.5 11.5t51 5.5q81 0 154 -33
t139 -83v873q-233 428 -498 428q-46 0 -96 -20t-91.5 -54.5t-68.5 -79t-27 -94.5q0 -45 29 -45q18 0 55.5 11.5t79 25t78.5 25t53 11.5q45 0 84 -14t68 -41t46 -65.5t17 -87.5q0 -37 -25 -81.5t-67.5 -94.5t-98 -105t-116.5 -111l-116 89l156 148q64 64 94 108.5t32 60.5
q0 38 -22.5 52t-66.5 14q-5 0 -23 -6t-43 -15.5t-54.5 -21t-57 -21t-49.5 -15.5t-35 -6q-37 0 -67 14t-51 39t-31.5 57.5t-10.5 69.5q0 78 35.5 150t94.5 126t136 86.5t159 32.5q89 0 156.5 -21.5t125 -64t109.5 -108t107 -151.5v549h142v-212h215v-142h-215v-1628h-142v150
q-28 31 -66.5 59.5t-81 50.5t-86 35.5t-80.5 13.5z" />
    <glyph glyph-name="bn_gh_ra" horiz-adv-x="1400" 
d="M800 13q-51 -8 -104 -19.5t-104.5 -23t-103.5 -18.5t-102 -7q-73 0 -133 31.5t-103 85t-65.5 121.5t-22.5 141q0 61 16.5 120.5t55.5 114.5l127 -34q-29 -43 -43.5 -91.5t-14.5 -98.5q0 -47 13.5 -92t40 -79t65.5 -54.5t91 -20.5q39 0 105 10t133.5 23t126 23t83.5 10
q34 0 54.5 -4t40.5 -16t42.5 -34.5t59.5 -58.5v138q-39 90 -105.5 167t-152 136.5t-184.5 100t-203 57.5l-44 111l215 227q-12 -3 -24 -4.5t-25 -1.5q-59 0 -113.5 22.5t-97 60t-68.5 87.5t-26 107q0 38 11.5 75.5t38.5 75.5h-294v142h1418v-142h-206v-1691h-140v147
q-43 54 -72 85.5t-57 47t-57.5 19.5t-71.5 4zM444 1401q-40 -35 -56 -68t-16 -64q0 -38 22.5 -67t58 -48.5t80 -29.5t90.5 -10q61 0 103.5 19t89.5 70l89 -100q-83 -81 -172.5 -168t-180.5 -183q93 -35 159 -63.5t121.5 -63.5t108 -82.5t117.5 -117.5v976h-614z" />
    <glyph glyph-name="bn_c_ra" horiz-adv-x="1422" 
d="M777 -285q-51 -8 -103.5 -19.5t-104.5 -21.5t-104 -17.5t-102 -7.5q-73 0 -134 31.5t-103.5 83.5t-66 119.5t-23.5 140.5q0 64 18.5 122.5t57.5 114.5l127 -34q-30 -42 -44 -91.5t-14 -99.5q0 -48 13.5 -92.5t39.5 -79t65.5 -55t90.5 -20.5q26 0 65 5t83.5 13t90.5 16
t87 16t73.5 13t48.5 5q34 0 55.5 -4t41 -16.5t42.5 -34.5t58 -59v547q-10 -10 -20 -21q-123 -131 -234.5 -197.5t-207.5 -66.5h-5q-39 23 -69.5 49.5t-53.5 53.5v1293h-461v142h1460v-142h-857v-168q50 -65 87 -106.5t76 -67t91 -39.5t133 -25q73 -11 124 -23t78 -27
q43 -27 76.5 -73t33.5 -115q0 -109 -72 -231q-18 -30 -38 -60v-1055h-141v146q-43 56 -72 87.5t-56.5 47t-57.5 19.5t-72 4zM587 147q65 0 146 58t192 177q109 119 163 211.5t54 158.5q0 62 -99 92q-56 13 -121 28t-126.5 36t-116 50.5t-92.5 75.5v-887z" />
    <glyph glyph-name="bn_ch_ra" horiz-adv-x="1395" 
d="M788 -246q-16 0 -51.5 -5.5t-75.5 -12.5t-75.5 -12.5t-52.5 -5.5q-112 0 -197.5 29.5t-144.5 81.5t-89 124.5t-30 157.5q0 54 14 113t41 122l128 -37q-21 -61 -30 -103.5t-9 -67.5q0 -75 20.5 -127.5t65.5 -85.5t118.5 -48t180.5 -15q23 0 49 5t54 11t54 11.5t49 5.5
q81 0 155.5 -34t140.5 -85v250q-94 66 -197 117q-135 68 -277.5 107.5t-274.5 39.5h-16v145h193q113 0 216.5 33t182.5 87t126 124t47 144q0 45 -7.5 77t-26.5 54t-52 37t-85 27l-61 8q-7 -80 -43.5 -157.5t-94 -139t-129 -100t-145.5 -38.5q-39 0 -77.5 17t-69 44t-50 61
t-19.5 67v621h-257v142h1455v-142h-1056v-58q35 -56 73.5 -91.5t86.5 -54.5q30 -2 75.5 -9t94.5 -15t98.5 -14t88.5 -6q11 0 23 1.5t21 3.5q63 0 116.5 -29t94 -79t64.5 -116t24 -140q0 -69 -36 -137t-96.5 -128.5t-141.5 -109.5t-172 -79q84 -31 145.5 -58.5t110.5 -56
t91 -59.5t87 -70t99 -89t127 -115l-93 -100q-55 63 -121 122v-470h-142v150q-28 31 -66 60t-80.5 51t-86.5 35.5t-82 13.5zM385 796q32 -63 79 -63q38 0 84.5 29.5t87 73t67.5 91.5t27 86q0 44 -47 48h-74q-139 0 -224 105v-370z" />
    <glyph glyph-name="bn_j_ra" horiz-adv-x="1700" 
d="M396 319q-2 -15 -2 -29v-27q0 -61 14 -118t43 -101t75 -70.5t111 -26.5q64 0 128.5 22.5t129 50t129 50t127.5 22.5q102 0 205 -36q-19 68 -35 138q-20 85 -33 165.5t-13 141.5q0 127 21 245.5t76 253.5h-58q-151 0 -246.5 15t-159 51t-106 95t-87.5 150
q-42 -20 -74.5 -54.5t-55.5 -76t-35 -88t-12 -92.5q0 -33 11.5 -65t32 -56t48 -38.5t59.5 -14.5q116 0 169 95l103 21q60 -52 96.5 -90t57 -71t27 -68t6.5 -83q0 -79 -33.5 -152.5t-90.5 -129t-131 -88.5t-154 -33q-204 0 -364 185q-61 69 -110.5 142.5t-83.5 170t-53 226.5
t-19 313h142q0 -50 0.5 -92.5t2.5 -83t4.5 -79t8.5 -80.5q16 -111 62.5 -213t112 -179.5t142.5 -123.5t153 -46q50 0 99 21.5t87 57.5t61.5 82.5t23.5 96.5q0 100 -78 166q-52 -51 -112.5 -78t-133.5 -27q-62 0 -114.5 26t-91 69.5t-60.5 100t-22 116.5q0 268 208 403h-633
v142h1752v-142h-885q32 -79 75 -129q44 -52 98.5 -81t118.5 -39t137 -10q42 0 91.5 2t124.5 9l69 -92q-31 -92 -56 -171t-42.5 -150.5t-27 -139t-9.5 -136.5q0 -47 11.5 -113t29 -141t40 -151.5t43.5 -140.5l-132 -42q-1 3 -2 5q-52 32 -120 50q-71 19 -139 19
q-64 0 -125.5 -22.5t-123 -49.5t-123.5 -49t-130 -22q-96 0 -169.5 35t-122.5 94t-75 135t-26 159q0 22 1 44t5 45h137z" />
    <glyph glyph-name="bn_tt_ra" horiz-adv-x="1404" 
d="M792 -130q-51 -8 -104 -20t-105 -23t-104 -18t-102 -7q-74 0 -134 31.5t-102.5 84t-66 121t-23.5 141.5q0 60 17.5 120t56.5 114l128 -32q-29 -43 -43.5 -92.5t-14.5 -99.5q0 -48 13.5 -93.5t40 -80t65.5 -54.5t90 -20q26 0 65 5.5t84 13t90.5 16t87 16t73.5 13t49 5.5
q33 0 55 -3.5t41.5 -15.5t42.5 -34.5t58 -60.5v507q-47 -55 -100 -98q-64 -52 -134.5 -82.5t-142.5 -30.5q-54 0 -96.5 21t-72 58.5t-45 89.5t-15.5 113v926h-454v142h1139q4 20 7.5 39t3.5 35q0 73 -61.5 107.5t-186.5 37.5l-429 -34q-69 0 -130.5 22.5t-107.5 62t-73 95.5
t-27 124q0 85 92 200l116 -81q-34 -44 -48.5 -81.5t-14.5 -70.5q0 -64 64.5 -96t200.5 -32l426 31q73 0 133.5 -25.5t103 -71t66 -109t23.5 -137.5v-16h133v-142h-832v-918q0 -148 85 -148q53 0 106 25t102 67.5t90.5 99t72.5 120.5t49 131.5t18 131.5q0 100 -84 100
q-38 0 -108 -45l-80 93q100 84 193 84q46 0 86 -17.5t69.5 -49t46.5 -77t17 -99.5q0 -78 -23 -161q-16 -55 -38 -109v-1064h-140v147q-43 56 -72 87.5t-57 47t-57.5 19.5t-71.5 4z" />
    <glyph glyph-name="bn_tth_ra" horiz-adv-x="1397" 
d="M795 -321q-51 -8 -102 -19.5t-103 -23t-105 -19t-104 -7.5q-73 0 -132.5 31.5t-102 85t-66 121.5t-23.5 141q0 61 17.5 121t55.5 114l127 -34q-30 -43 -44 -91.5t-14 -98.5q0 -47 13.5 -91.5t39.5 -79t65.5 -55t91.5 -20.5q39 0 104.5 10.5t133 23t126.5 22.5t83 10
q34 0 55.5 -3t41 -15.5t42.5 -34.5t58 -60v460q-57 -63 -127 -106q-87 -53 -183 -53q-95 0 -173 32.5t-135 90t-88.5 137.5t-31.5 178q0 54 13.5 81.5t38.5 44.5t58.5 31.5t74.5 43.5q82 55 134.5 107t84 117t43.5 149t12 204q0 52 -9.5 97t-24.5 80h-746v142h666
q-113 131 -168.5 241.5t-55.5 212.5q0 81 38.5 171.5t111.5 187.5l104 -77q-40 -56 -62.5 -93.5t-32.5 -64.5t-12 -48t-2 -41q0 -53 10.5 -101.5t39.5 -104t80.5 -123.5t133.5 -160h558v-142h-494q84 -129 138 -221.5t81 -150.5q43 -97 71 -202.5t28 -220.5q0 -97 -33 -195
v-1036h-141v147q-43 54 -72 86t-56.5 47.5t-57.5 19.5t-72 4zM917 1129q0 -112 -35 -219.5t-97 -198t-146.5 -156t-183.5 -93.5q0 -312 282 -312q72 0 135.5 44t110 115.5t73.5 162.5t27 185q0 234 -166 472z" />
    <glyph glyph-name="bn_dd_ra" horiz-adv-x="1564" 
d="M819 -155q-16 0 -52 -5.5t-75.5 -11.5t-74.5 -11t-52 -5q-112 0 -197.5 30t-143.5 82t-88 123.5t-30 154.5q0 57 13 114.5t40 120.5l127 -33q-42 -118 -42 -172q0 -75 20.5 -128.5t66 -86.5t120 -48.5t181.5 -15.5q23 0 49 5.5t54 12.5t54 12.5t49 5.5q81 0 155.5 -33.5
t140.5 -85.5v358q-23 -12 -47 -22q-98 -40 -210 -40q-87 0 -170.5 34t-156 90t-131.5 130t-98 155q-61 123 -101.5 300t-60.5 410h141q32 -254 82 -438t121.5 -304t166 -178.5t215.5 -58.5q76 0 147 34t125 88.5t86.5 125.5t32.5 145q0 57 -18.5 109.5t-53.5 104.5
q-27 -42 -71.5 -87.5t-98.5 -82.5t-110 -61.5t-105 -24.5q-29 0 -59 19t-53.5 47.5t-38.5 61.5t-15 61v555h-691v142h1609v-142h-776v-541q0 -31 11 -46t38 -15q22 0 54.5 17.5t70 45.5t76 62.5t71.5 68t58 64t35 49.5q94 -62 150.5 -171.5t56.5 -264.5q0 -102 -43 -194
q-37 -80 -97 -142v-796h-142v147q-29 33 -67 61.5t-81 50.5t-86 35t-81 13z" />
    <glyph glyph-name="bn_ddh_ra" horiz-adv-x="1426" 
d="M800 -298q-51 -8 -104 -19.5t-104.5 -22t-103.5 -18t-102 -7.5q-73 0 -134 32t-103.5 84.5t-66 120t-23.5 139.5q0 63 18 122t57 113l127 -33q-29 -42 -43.5 -91t-14.5 -100q0 -48 13.5 -92.5t40 -79t65.5 -54.5t91 -20q39 0 105 10t133.5 23t126 23t83.5 10
q34 0 54.5 -3.5t40.5 -15.5t42 -34l60 -60v493q-42 -50 -87 -91q-64 -57 -134.5 -90t-141.5 -33q-54 0 -96.5 21t-72.5 59t-45.5 90t-15.5 112v1111h-467v142h1441v-142h-829v-1103q0 -44 3 -71t12.5 -42.5t26 -22.5t40.5 -12q57 5 111 35.5t103 77t90.5 106.5t71.5 127.5
t47 138.5t17 139q0 105 -82 105q-42 0 -108 -45l-84 95q119 92 203 92q41 0 79.5 -24t68.5 -60.5t47 -81.5t17 -87q0 -82 -23 -171q-20 -75 -52 -148v-1051h-140v146q-43 55 -72 86.5t-57 47.5t-57.5 20t-71.5 4z" />
    <glyph glyph-name="bn_t_ra" horiz-adv-x="1541" 
d="M1341 -31h-141q0 159 -58 243t-185 84q-21 0 -58.5 -3.5t-81 -9.5t-91.5 -12t-92 -12.5t-80 -9.5t-56 -3q-85 0 -155 34.5t-120.5 95.5t-78.5 145t-28 184q0 75 13 152t32 158l121 -20q-24 -116 -24 -257q0 -351 238 -351l491 50q109 0 213 -100v771q-46 95 -97 95
q-32 0 -74.5 -21.5t-88 -57t-90 -80t-80.5 -89t-59.5 -87t-27.5 -72.5q12 -71 64 -71q35 0 91 46l67 -99q-42 -42 -85.5 -65.5t-89.5 -23.5q-44 0 -79 17t-59 46.5t-36.5 69.5t-12.5 86q0 53 28 113.5t75 120.5t107 115.5t122.5 98t124 68t111.5 25.5q35 0 66 -17t57 -41
t45.5 -52.5t33 -52.5t21 -39t7.5 -12v-1160zM-24 1543h1572v-142h-1572v142z" />
    <glyph glyph-name="bn_t_ra1" horiz-adv-x="1618" 
d="M856 -163q-16 0 -51.5 -5.5t-75.5 -11.5t-75.5 -11t-52.5 -5q-112 0 -197.5 29t-143.5 80.5t-88 123t-30 156.5q0 111 53 235l128 -32q-21 -61 -30 -104.5t-9 -67.5q0 -76 20.5 -129t65.5 -87t118.5 -48.5t180.5 -14.5q23 0 49 5t54 11.5t54 11.5t49 5q81 0 155.5 -32
t140.5 -84v297q-3 -2 -7 -3q-96 -51 -222 -51q-141 0 -244 46t-177.5 124.5t-125 183t-85.5 221t-59 239.5t-44 239l-12 69h142l13 -77q18 -100 38 -206t48.5 -206.5t69 -190t98 -156.5t135 -106t181.5 -39q101 0 175.5 39t123 103t71.5 146t23 168q0 85 -22.5 168
t-65.5 148t-106.5 105.5t-145.5 40.5q-40 0 -78.5 -13.5t-68.5 -38.5t-49.5 -59.5t-19.5 -76.5q0 -19 8.5 -43t27.5 -54l-119 -69q-29 57 -43.5 108t-14.5 95q0 60 28 113.5t75.5 93.5t112.5 62.5t141 22.5q117 0 207 -52.5t150.5 -138t91.5 -193.5t31 -219
q0 -113 -32.5 -220.5t-96.5 -191.5q-5 -7 -11 -15v-745h-142v146q-28 32 -66 61t-80.5 51.5t-86.5 35.5t-82 13zM-32 1401v142h1673v-142h-1673z" />
    <glyph glyph-name="bn_th_ra" horiz-adv-x="1436" 
d="M775 -3q-16 0 -51 -5.5t-74.5 -12.5t-76 -12.5t-53.5 -5.5q-111 0 -196.5 29.5t-143.5 81.5t-88.5 123.5t-30.5 155.5q0 57 14 115.5t38 119.5l127 -33q-19 -60 -28 -103.5t-9 -67.5q0 -76 20 -128.5t66 -85.5t119.5 -48t180.5 -15q21 0 48 5t55 11t55 11.5t50 5.5
q81 0 153.5 -33t138.5 -86v183q-99 110 -180 193t-165 143t-180.5 98t-225.5 58l-122 155q174 24 289 52.5t182.5 68.5t95 93t27.5 126q0 53 -23 92t-60 65.5t-84.5 39.5t-97.5 13q-44 0 -90.5 -13t-85 -36.5t-63 -54.5t-24.5 -68q0 -42 20.5 -63.5t48.5 -21.5q7 0 16.5 1.5
t17.5 3.5v-141q-11 -3 -23 -3h-22q-40 0 -76 15.5t-63.5 44t-43 67.5t-15.5 86q0 80 37 141.5t95.5 102.5t132.5 62t147 21q74 0 145.5 -23t127.5 -69.5t90.5 -116.5t34.5 -165q0 -66 -32.5 -131.5t-84 -119.5t-115 -92t-126.5 -50q143 -54 267.5 -143t227.5 -216v1369h145
v-243h223v-142h-223v-1713h-145v146q-28 32 -66.5 62t-81 52t-85.5 35.5t-81 13.5z" />
    <glyph glyph-name="bn_d_ra" horiz-adv-x="1487" 
d="M220 539q-9 -49 -9 -104q0 -53 11 -103t36 -90t65.5 -65.5t98.5 -29.5q7 -3 13.5 -3.5t13.5 -0.5q58 0 117 14t117 32t116 32t114 14h18q11 0 19 -3q100 -8 192 -56q-5 26 -8 51q-15 124 -15 251q0 135 17.5 267.5t56.5 254.5q-180 -23 -339 -156.5t-297 -381.5l-127 137
v802h-437v142h1505v-142h-927v-646q141 185 311.5 287.5t379.5 121.5l121 -91q-66 -123 -95 -270t-29 -302q0 -123 14 -245t41 -237l-127 -24q-49 37 -119.5 63.5t-137.5 35.5h-35q-57 0 -112 -14.5t-110 -32t-111 -32.5t-113 -15h-18q-9 0 -18 3q-88 9 -153 47t-109 94.5
t-65.5 127.5t-21.5 145q0 69 21 136z" />
    <glyph glyph-name="bn_dh_ra" horiz-adv-x="1386" 
d="M1047 1174q-328 -159 -570 -367q72 -35 126 -62.5t97 -52t81 -49.5t77 -54.5t84.5 -68t104.5 -89.5v743zM1047 1338v205h369v-142h-227v-1401h-142v238q-92 90 -169.5 161t-157.5 127t-170.5 99t-207.5 77l-78 113l311 253q-261 61 -261 254q0 48 18.5 92t50.5 76.5
t74.5 52t91.5 19.5q117 0 197 -155l-108 -69q-15 35 -39 58.5t-63 23.5q-21 0 -35.5 -10t-25 -25.5t-15 -32.5t-4.5 -30q0 -37 21.5 -63t58 -46t82.5 -34.5t94 -28.5zM732 14q-17 0 -49.5 -7.5t-77.5 -16t-127 -10.5q-111 0 -196.5 29t-143.5 81t-88.5 123.5t-30.5 156.5
q0 54 12.5 113.5t39.5 121.5l127 -33q-39 -122 -39 -172q0 -76 20.5 -128.5t66 -86t120 -48.5t177.5 -12q26 3 54.5 8t55 11t51.5 9t49 3q81 0 154 -33t140 -85v628h142v-960h-142v147q-28 33 -66.5 62t-81 51t-86.5 35t-81 13z" />
    <glyph glyph-name="bn_n_ra" horiz-adv-x="1394" 
d="M374 364q-76 53 -110 130.5t-34 162.5q0 83 29 166t83 148.5t128 106.5t166 41q135 0 239 -69.5t173 -211.5v563h-1059v142h1422v-142h-221v-1401h-142v533q-15 65 -49.5 142t-84.5 144.5t-114 112.5t-138 45q-65 0 -118.5 -25t-92 -66t-59.5 -94.5t-21 -108.5
q0 -57 22 -111t71 -99zM733 -137q-17 0 -49.5 -7.5t-77.5 -16t-127 -10.5q-111 0 -196.5 29t-143.5 81t-88.5 123.5t-30.5 156.5q0 54 12.5 113.5t39.5 121.5l127 -33q-39 -122 -39 -172q0 -76 20.5 -128.5t66 -86t120 -48.5t177.5 -12q26 3 54.5 8t55 11t51.5 9t49 3
q81 0 154 -33t140 -85v628h142v-960h-142v147q-28 33 -66.5 62t-81 51t-86.5 35t-81 13z" />
    <glyph glyph-name="bn_n_ra1" horiz-adv-x="1449" 
d="M-85 1543h1586v-142h-293q35 -66 50.5 -124t15.5 -105q0 -49 -20.5 -99.5t-54.5 -91.5t-76 -67.5t-84 -26.5q-74 0 -229 131q-77 65 -142.5 89t-116.5 24q-43 0 -74 -31t-31 -74q0 -27 14 -38t41 -23l-84 -92q-113 52 -113 188q0 46 21 84.5t56.5 67t82 44t98.5 15.5
q125 0 229 -64q8 -5 40.5 -33.5t73.5 -61t82.5 -58.5t65.5 -26q16 6 31 22.5t26.5 36.5t17.5 42t6 42q0 85 -25 143.5t-75 85.5h-1119v142zM778 393q-17 0 -49.5 -7.5t-77.5 -16t-127 -10.5q-111 0 -196.5 29t-143.5 81t-88.5 123.5t-30.5 156.5q0 54 12.5 113.5t39.5 121.5
l127 -33q-39 -122 -39 -172q0 -76 20.5 -128.5t66 -86t120 -48.5t177.5 -12q26 3 54.5 8t55 11t51.5 9t49 3q81 0 154 -33t140 -85v628h142v-960h-142v147q-28 33 -66.5 62t-81 51t-86.5 35t-81 13z" />
    <glyph glyph-name="bn_p_ra" horiz-adv-x="1494" 
d="M901 1261q-53 42 -97 64t-79 33t-62 13t-47 2q-31 0 -72 -9t-84.5 -27t-84.5 -48.5t-71 -72.5q65 0 111 -12t79 -41.5t56.5 -81t43.5 -129.5q65 61 141.5 137t165.5 172zM1290 1771v-228h237v-142h-237v-1401h-142v868q0 8 -10 31.5t-26.5 54t-36 64.5t-37 63t-31.5 49
t-20 26q-75 -81 -203.5 -215t-313.5 -319l-100 93q103 108 103 198q0 32 -9.5 63t-28 55.5t-44 38.5t-57.5 14q-6 0 -132 -26l-98 100q15 68 64.5 132t117.5 114t147 80.5t153 30.5q366 0 562 -359v615h142zM833 137q-17 0 -49.5 -7.5t-77.5 -16t-127 -10.5
q-111 0 -196.5 29t-143.5 81t-88.5 123.5t-30.5 156.5q0 54 12.5 113.5t39.5 121.5l127 -33q-39 -122 -39 -172q0 -76 20.5 -128.5t66 -86t120 -48.5t177.5 -12q26 3 54.5 8t55 11t51.5 9t49 3q81 0 154 -33t140 -85v628h142v-960h-142v147q-28 33 -66.5 62t-81 51t-86.5 35
t-81 13z" />
    <glyph glyph-name="bn_ph_ra" horiz-adv-x="1723" 
d="M976 0v193q-21 51 -62.5 102.5t-94.5 100t-116.5 92t-130.5 78.5t-135 60.5t-130 37.5l-80 101q101 77 196.5 155.5t184.5 155.5q-47 69 -142.5 151t-238.5 174h-236v142h1751v-142h-1275q173 -114 283 -270v-105q-69 -63 -146 -126.5t-162 -131.5q160 -51 294 -145.5
t240 -229.5v923q21 3 42 3h43q112 0 214 -32t180.5 -94t124.5 -153.5t46 -210.5q0 -43 -17.5 -81t-48 -67t-69.5 -46t-81 -17q-23 0 -55.5 7.5t-71.5 23.5l69 137q15 -14 29 -20t26 -6q77 0 77 97q0 69 -27 126.5t-75 98t-115.5 62.5t-148.5 22v-1166h-142zM661 7
q-17 0 -49.5 -7.5t-77.5 -16t-127 -10.5q-111 0 -196.5 29t-143.5 81t-88.5 123.5t-30.5 156.5q0 54 12.5 113.5t39.5 121.5l127 -33q-39 -122 -39 -172q0 -76 20.5 -128.5t66 -86t120 -48.5t177.5 -12q26 3 54.5 8t55 11t51.5 9t49 3q81 0 154 -33t140 -85v628h142v-960
h-142v147q-28 33 -66.5 62t-81 51t-86.5 35t-81 13z" />
    <glyph glyph-name="bn_b_ra" horiz-adv-x="1427" 
d="M768 77q-17 0 -49.5 -7.5t-77.5 -16t-127 -10.5q-111 0 -196.5 29t-143.5 81t-88.5 123.5t-30.5 156.5q0 54 12.5 113.5t39.5 121.5l127 -33q-39 -122 -39 -172q0 -76 20.5 -128.5t66 -86t120 -48.5t177.5 -12q26 3 54.5 8t55 11t51.5 9t49 3q81 0 154 -33t140 -85v145
q-12 42 -48.5 95t-89 109t-116 109.5t-129.5 96t-129.5 68t-114.5 25.5q-11 0 -20.5 -1t-17.5 -4l-92 150q348 268 757 388v119h-1112v142h1455v-142h-201v-1632h-142v147q-28 33 -66.5 62t-81 51t-86.5 35t-81 13zM1083 1142q-29 -7 -75 -24.5t-98.5 -41t-108.5 -52
t-106 -56.5t-90 -54t-60 -46q36 -4 86 -23.5t105 -50.5t110 -69.5t103 -80t84 -82t50 -73.5v653z" />
    <glyph glyph-name="bn_bh_ra" horiz-adv-x="1559" 
d="M-29 1401v142h1606v-142h-1606zM1235 0q-14 81 -37 137.5t-60 92.5t-93 52t-134 16q-16 0 -55.5 -2t-84.5 -4t-88.5 -3t-67.5 -1q-120 0 -214.5 32t-159.5 94.5t-98.5 152t-33.5 204.5q0 42 10.5 98t33.5 126l135 -41q-18 -63 -27.5 -113t-9.5 -89q0 -88 31 -150t79 -101
t104 -57.5t106 -18.5l417 26q66 0 125.5 -19.5t106.5 -75.5v642q-270 -235 -455 -235q-66 0 -121 22t-94 62.5t-60.5 96.5t-21.5 124q0 40 18 78t48.5 67t69 46.5t80.5 17.5q101 0 147 -100l-61 -119q-35 81 -70 81q-15 0 -29.5 -8t-25.5 -20.5t-18 -28.5t-7 -32
q0 -140 158 -140q46 0 86.5 13t90 47t113.5 94.5t156 154.5l135 -61v-1158h-124z" />
    <glyph glyph-name="bn_bh_ra1" horiz-adv-x="1584" 
d="M-13 1401v142h1659v-142h-1659zM848 1069q-76 58 -115 58q-42 0 -65 -29t-23 -83q0 -81 53 -120.5t154 -39.5q50 0 90.5 13.5t78 50.5t77.5 102.5t89 167.5q78 -54 132.5 -108t88.5 -114t49 -127.5t15 -148.5q0 -96 -38 -185t-103 -158t-150.5 -110.5t-182.5 -41.5
q-147 0 -278 58.5t-246 187t-212 330t-154 388.5l135 40q51 -196 128 -355t173 -272t208.5 -174.5t234.5 -61.5q74 0 137 35.5t108.5 92t71.5 128t26 143.5q0 65 -23 123t-70 104q-77 -131 -170.5 -190.5t-203.5 -59.5q-80 0 -146 21.5t-113.5 62.5t-73.5 102t-26 140
q0 46 14 87.5t39.5 73t62 50.5t82.5 19q114 -1 200 -82zM930 -188q-17 0 -49.5 -7.5t-77.5 -16t-127 -10.5q-111 0 -196.5 29t-143.5 81t-88.5 123.5t-30.5 156.5q0 54 12.5 113.5t39.5 121.5l127 -33q-39 -122 -39 -172q0 -76 20.5 -128.5t66 -86t120 -48.5t177.5 -12
q26 3 54.5 8t55 11t51.5 9t49 3q81 0 154 -33t140 -85v628h142v-960h-142v147q-28 33 -66.5 62t-81 51t-86.5 35t-81 13z" />
    <glyph glyph-name="bn_m_ra" horiz-adv-x="1385" 
d="M759 1050q81 -27 152.5 -94.5t132.5 -172.5v618h-652q80 -27 137 -56.5t100 -70t74 -95t56 -129.5zM1186 1401v-1401h-142v478q0 28 -17.5 72t-47 93.5t-67.5 98.5t-78.5 89t-79.5 65t-72 25q-148 0 -234 -78.5t-86 -225.5q0 -220 234 -266l-63 -121h-11q-61 0 -115 38
t-96 95t-66 123t-24 123q0 378 383 455q-18 48 -43.5 82.5t-72.5 61.5t-122 50.5t-190 49.5v93h-182v142h1398v-142h-206zM729 -231q-17 0 -49.5 -7.5t-77.5 -16t-127 -10.5q-111 0 -196.5 29t-143.5 81t-88.5 123.5t-30.5 156.5q0 54 12.5 113.5t39.5 121.5l127 -33
q-39 -122 -39 -172q0 -76 20.5 -128.5t66 -86t120 -48.5t177.5 -12q26 3 54.5 8t55 11t51.5 9t49 3q81 0 154 -33t140 -85v628h142v-960h-142v147q-28 33 -66.5 62t-81 51t-86.5 35t-81 13z" />
    <glyph glyph-name="bn_y_ra" horiz-adv-x="1429" 
d="M581 1401q42 -28 82.5 -56.5t78.5 -59.5t71.5 -68t60.5 -83q-254 -202 -397 -346q76 -23 135.5 -44.5t108.5 -45t91.5 -51t85 -63t87.5 -80.5t100 -103v1000h-504zM-12 1543h1453v-142h-212v-1401h-144v211q-47 78 -124 151t-169 131.5t-192 99.5t-193 56l-124 156
q73 73 173 159t231 183q-4 7 -29 28.5t-62.5 50t-80.5 59t-83 57t-69.5 43t-40.5 16.5h-334v142zM770 22q-16 0 -51 -5.5t-75 -11.5t-76.5 -11t-52.5 -5q-111 0 -196.5 30t-143.5 82t-88.5 123.5t-30.5 154.5q0 57 14.5 114.5t38.5 120.5l127 -34q-19 -60 -28.5 -102.5
t-9.5 -68.5q0 -76 20 -129t66 -86t119.5 -48.5t180.5 -15.5q22 0 49 5t54.5 12.5t54.5 13t50 5.5q81 0 154 -33.5t139 -85.5v628h144v-960h-144v147q-28 33 -66.5 61t-81 50.5t-86 35.5t-81.5 13z" />
    <glyph glyph-name="bn_sh_ra" horiz-adv-x="1476" 
d="M196 965q19 -19 45.5 -35.5t65.5 -16.5q28 5 52.5 24t42 45t27.5 56.5t10 59.5q0 71 -28.5 127t-76.5 95t-111 60t-132 21q-58 0 -114 -19v156q30 4 58.5 4.5t57.5 0.5q79 0 152 -14t133 -48.5t101 -91.5t55 -142q35 131 105.5 196.5t181.5 65.5q58 -6 100 -28.5
t76.5 -56.5t65.5 -77.5t70 -93.5v518h142v-228h222v-142h-222v-1401h-142v968q0 24 -13.5 62.5t-38 83t-55.5 90t-67.5 82t-74 59.5t-74.5 23q-69 0 -112 -67.5t-43 -211.5q0 -32 14 -61t38 -50t54 -33.5t63 -12.5q46 0 88 31l66 -119q-43 -31 -84 -42.5t-76 -11.5
q-83 0 -148 38.5t-112 123.5q-20 -42 -49 -75t-63 -57t-70.5 -36.5t-71.5 -12.5q-47 0 -91.5 17.5t-88.5 63.5zM818 94q-17 0 -49.5 -7.5t-77.5 -16t-127 -10.5q-111 0 -196.5 29t-143.5 81t-88.5 123.5t-30.5 156.5q0 54 12.5 113.5t39.5 121.5l127 -33q-39 -122 -39 -172
q0 -76 20.5 -128.5t66 -86t120 -48.5t177.5 -12q26 3 54.5 8t55 11t51.5 9t49 3q81 0 154 -33t140 -85v628h142v-960h-142v147q-28 33 -66.5 62t-81 51t-86.5 35t-81 13z" />
    <glyph glyph-name="bn_ss_ra" horiz-adv-x="1291" 
d="M423 1401q98 -39 246 -144t346 -281v425h-592zM1015 757q-35 50 -106.5 121.5t-175.5 163.5q-93 -69 -166 -136.5t-130 -134.5q169 -19 314 -107t264 -244v337zM1015 177q-92 131 -169.5 218t-153.5 139.5t-155 75.5t-173 26l-116 160q40 48 131 130t238 200
q-76 57 -193.5 124.5t-280.5 150.5h-201v142h1407v-142h-193v-1401h-141v177zM757 19q-51 -8 -102.5 -19.5l-103 -23t-104.5 -19t-104 -7.5q-73 0 -133 31.5t-103.5 85t-67 121.5t-23.5 141q0 61 19 121t57 114l127 -33q-30 -44 -43 -92.5t-13 -98.5q0 -47 13 -91.5
t38.5 -79t65 -55t90.5 -20.5q39 0 105 10.5t133.5 23t126.5 23t83 10.5q34 0 55.5 -3.5t41 -15.5t42.5 -34.5t58 -60.5v739h141v-1071h-141v147q-43 54 -72 86t-56.5 47.5t-57.5 19.5t-72 4z" />
    <glyph glyph-name="bn_s_ra" horiz-adv-x="1491" 
d="M1156 678q-10 31 -38 80t-64.5 96.5t-75.5 81t-73 33.5q-40 0 -74 -34.5t-66 -85.5t-64.5 -110.5t-70.5 -111t-85 -85.5t-107 -34q-69 0 -146 73.5t-167 220.5l123 66q13 -26 30.5 -63.5t40.5 -72t51 -59t60 -24.5q27 0 59 29t59 69t45.5 81t21.5 66q-13 94 -35.5 159.5
t-72 111.5t-137 79t-230.5 64v93h-155v142h1519v-142h-205v-1401h-143v678zM359 1401q81 -32 138 -63t99.5 -71.5t74.5 -96.5t60 -139q84 80 180 80q109 0 245 -190v480h-797zM842 -33q-17 0 -49.5 -7.5t-77.5 -16t-127 -10.5q-111 0 -196.5 29t-143.5 81t-88.5 123.5
t-30.5 156.5q0 54 12.5 113.5t39.5 121.5l127 -33q-39 -122 -39 -172q0 -76 20.5 -128.5t66 -86t120 -48.5t177.5 -12q26 3 54.5 8t55 11t51.5 9t49 3q81 0 154 -33t140 -85v628h142v-960h-142v147q-28 33 -66.5 62t-81 51t-86.5 35t-81 13z" />
    <glyph glyph-name="bn_s_ra1" horiz-adv-x="1335" 
d="M1131 1258q0 23 -16 58t-47 83q-7 1 -11 1.5t-7 0.5h-5h-338q0 -51 22 -103.5t57.5 -96t81.5 -71t95 -27.5q168 0 168 155zM1272 1233q0 -59 -21 -108t-57.5 -85.5t-86.5 -56.5t-107 -20q-64 0 -123 21.5t-108 62t-87.5 97.5t-64.5 128q-47 -184 -113.5 -271.5
t-147.5 -87.5q-29 0 -65.5 19.5t-71 48.5t-61.5 62.5t-39 62.5q19 23 36.5 50t32.5 58q16 -27 37 -55.5t42 -52t41.5 -38.5t37.5 -15q27 0 52.5 28.5t45.5 72t32.5 95t12.5 97.5q0 15 -1.5 27.5t-4.5 27.5h-596v142h1567v-142h-240q23 -27 40.5 -67.5t17.5 -100.5zM843 350
q-53 -7 -105 -18t-103 -22t-103 -18.5t-103 -7.5q-75 0 -134 32t-102 84.5t-65.5 120.5t-22.5 141q0 61 16 121t55 115l127 -33q-58 -90 -58 -191q0 -48 13.5 -93.5t40 -80t66 -55.5t91.5 -21q39 0 105 11t133.5 24.5t126 24.5t83.5 11q32 0 53.5 -4t42 -16.5t42.5 -34.5
t58 -59v735h141v-1067h-141v143q-44 57 -73 88.5t-56 47t-56.5 19t-71.5 3.5z" />
    <glyph glyph-name="bn_h_ra" horiz-adv-x="1253" 
d="M756 -184q-17 0 -49.5 -7.5t-77.5 -16t-127 -10.5q-111 0 -196.5 29t-143.5 81t-88.5 123.5t-30.5 156.5q0 54 12.5 113.5t39.5 121.5l127 -33q-39 -122 -39 -172q0 -76 20.5 -128.5t66 -86t120 -48.5t177.5 -12q26 3 54.5 8t55 11t51.5 9t49 3q81 0 154 -33t140 -85v269
h142v-601h-142v147q-28 33 -66.5 62t-81 51t-86.5 35t-81 13zM-9 1401v142h1327v-142h-1327zM1302 -147q-236 259 -500.5 436.5t-567.5 277.5l-61 158q260 -92 423 -92q76 0 144.5 25.5t120.5 69.5t83 101.5t31 122.5q0 48 -31 95.5t-78 85t-102 60.5t-102 23
q-43 0 -88.5 -14t-83 -39t-62 -61.5t-24.5 -80.5q0 -27 20.5 -55t55.5 -59l-85 -116q-133 82 -133 240q0 62 40.5 121t101.5 105t132.5 73.5t132.5 27.5q73 0 152.5 -33.5t145 -90.5t108 -130.5t42.5 -151.5q0 -309 -413 -446q232 -127 405.5 -266.5t296.5 -294.5z" />
    <glyph glyph-name="bn_asamir_ra" horiz-adv-x="1398" 
d="M1197 0h-141v246q-12 42 -48.5 95t-88.5 109t-116.5 109.5t-130 96t-129.5 68t-115 25.5q-11 0 -20.5 -1t-17.5 -4l-92 150q349 268 758 388v119h-1109v142h1470v-142h-220v-1401zM1056 697l-376 279q-54 -31 -98.5 -58.5t-64.5 -49.5q36 -4 86 -23.5t105 -50.5
t111 -69.5t103 -80t83 -82t51 -73.5v208zM1056 1142q-39 -8 -102.5 -35t-135.5 -62l238 -177v274zM744 119q-16 0 -51.5 -5.5t-75 -11.5t-76 -11.5t-52.5 -5.5q-110 0 -195 29t-143 80.5t-87.5 121.5t-29.5 154q0 108 55 229l124 -29q-39 -125 -39 -169q0 -76 20.5 -128
t66 -84.5t119.5 -47t179 -14.5q21 0 47.5 5.5t53.5 11.5t53.5 11.5t49.5 5.5q81 0 154 -33.5t139 -84.5v617h141v-942h-141v143q-29 32 -66.5 61t-79.5 50t-85 34t-81 13z" />
    <glyph glyph-name="bn_asamib_ra" horiz-adv-x="1227" 
d="M1006 1142q-30 -7 -76 -24.5t-98.5 -41t-108.5 -52t-106 -56.5t-90 -54t-60 -46q37 -4 86.5 -23.5t104.5 -50.5t111 -69.5t103 -80t83 -82t51 -73.5v653zM1147 0h-141v246q-12 42 -48.5 95t-88.5 109t-116.5 109.5t-129.5 96t-128.5 68t-115.5 25.5q-10 0 -20.5 -1
t-18.5 -4l-92 150q349 268 758 388v119h-1042v142h1363v-142h-180v-1401zM763 105q-35 61 -88.5 119.5t-118.5 106.5t-136.5 83.5t-142.5 49.5l82 127q74 -17 148.5 -53.5t141 -86.5t120.5 -111.5t88 -128.5zM749 -92q-51 -8 -103.5 -19.5t-104.5 -21.5t-104 -17.5
t-102 -7.5q-74 0 -134.5 31.5t-103 85t-66 121.5t-23.5 141q0 61 17.5 121t56.5 114l129 -36q-30 -42 -44 -91.5t-14 -98.5q0 -48 13.5 -92.5t39.5 -79t65 -54.5t91 -20q27 0 65.5 5.5t83 12.5t90.5 16t87 16.5t73.5 13t48.5 5.5q34 0 55.5 -4t41 -16.5t42 -34.5t57.5 -59
v736h141v-1071h-141v148q-42 54 -71.5 85.5t-57 47t-57 19.5t-71.5 4z" />
    <glyph glyph-name="bn_k_ss_ra" horiz-adv-x="1836" 
d="M1092 1401h-229q0 -51 14 -96t43 -78.5t72 -52t100 -18.5v245zM1092 1015l-119 22q-48 9 -96 46t-85 89t-61 113t-24 116h-356q30 -31 42.5 -63.5t15.5 -63.5q81 0 157.5 -35.5t135 -96.5t94.5 -141t36 -169v-19t-3 -17q93 -43 156.5 -103t106.5 -137v459zM130 1029
q-3 10 -4.5 21.5t-1.5 22.5q0 33 11.5 64t32.5 56t50 43t64 25q0 43 -28.5 78t-79.5 62h-293v142h2055v-142h-703v-245q129 -7 199.5 -13t82.5 -9q42 -12 83.5 -42.5t74.5 -73.5t53.5 -95t20.5 -105q0 -115 -61.5 -177.5t-176.5 -62.5q-67 0 -127 39l67 130q14 -15 31.5 -22
t36.5 -7q89 0 89 105q0 88 -70 143t-195 55q2 0 -25 -1.5t-83 -4.5v-1023h-141v343q-35 75 -83 138t-102 107.5t-112 69.5t-112 25q-27 -9 -41 -16t-23 -18t-15 -29t-15 -50q-25 14 -54.5 34.5t-67.5 44.5q0 35 28.5 73t79.5 77q19 7 49.5 13t69.5 14v34q0 66 -28.5 119.5
t-75.5 90.5t-110.5 57t-133.5 20q-42 0 -59.5 -25.5t-17.5 -60.5q0 -11 0.5 -20.5t4.5 -19.5zM777 69q-17 0 -49.5 -7.5t-77.5 -16t-127 -10.5q-111 0 -196.5 29t-143.5 81t-88.5 123.5t-30.5 156.5q0 54 12.5 113.5t39.5 121.5l127 -33q-39 -122 -39 -172
q0 -76 20.5 -128.5t66 -86t120 -48.5t177.5 -12q26 3 54.5 8t55 11t51.5 9t49 3q81 0 154 -33t140 -85v628h142v-960h-142v147q-28 33 -66.5 62t-81 51t-86.5 35t-81 13z" />
    <glyph glyph-name="bn_k_ka" horiz-adv-x="1573" 
d="M971 1401v-127q105 -13 197.5 -50t161.5 -92.5t109.5 -126.5t40.5 -150q0 -34 -14.5 -64t-37.5 -53t-52.5 -36.5t-61.5 -13.5q-11 0 -21.5 1.5t-20.5 4.5q20 -14 45 -41.5t47 -60.5t37 -69t15 -67q0 -48 -15.5 -88.5t-44 -70.5t-67 -46t-83.5 -16l10 142q56 0 56 71
q0 42 -26.5 82.5t-69.5 75t-97 59.5t-108 34v-865h-142v246q-64 56 -110.5 97.5t-86 70.5t-75 50t-75 37.5t-88 31t-112.5 31.5l-94 114l213 132q-58 43 -117.5 75.5t-120.5 51.5l-89 116q127 127 317.5 224t437.5 166v124h-892v142h1714v-142h-680zM1338 894q0 9 -13 30.5
t-36.5 49.5t-55.5 57t-70 53t-81.5 39.5t-89.5 15.5h-11q-4 0 -10 -2v-303q31 -6 95.5 -32t166.5 -69q25 51 25 74l14 -2q66 0 66 89zM829 1139q-69 -20 -152.5 -53t-162.5 -70t-144 -75t-93 -68q65 -33 128 -70.5t128 -80.5q43 23 117 52t179 64v301zM829 694
q-93 -30 -200.5 -75t-232.5 -107q59 -22 101.5 -39t75.5 -33t60 -33.5t55.5 -40.5t61.5 -55.5t79 -78.5v462z" />
    <glyph glyph-name="bn_k_tta" horiz-adv-x="1297" 
d="M768 1341q69 -9 138 -44.5t124.5 -89.5t90.5 -121.5t35 -137.5q0 -100 -55.5 -149.5t-152.5 -49.5q-86 0 -171 77l63 122q27 -39 108 -58q20 4 33.5 6.5t20.5 9.5t9.5 17.5t2.5 30.5q0 195 -246 257q0 -131 -39 -267.5t-116 -283.5q-55 -55 -100 -116q-37 -51 -67.5 -114
t-30.5 -124q0 -39 15.5 -70t40.5 -53t58.5 -33.5t70.5 -11.5q12 0 22.5 0.5t24.5 4.5q58 23 108 59.5t87.5 81t59.5 94t22 100.5q0 31 -15 53t-45 22q-20 0 -38 -31t-36 -74l-96 103q57 143 165 143q208 0 208 -251q0 -81 -44.5 -161t-114 -143t-154 -102.5t-162.5 -39.5
q-72 0 -130.5 24t-100.5 66.5t-65 102.5t-23 131q0 145 166 331q-81 222 -271 255l-35 106q185 265 494 328v60h-660v142h947q12 19 6 53q-31 85 -220 85q-19 0 -53.5 -3t-102 -8.5t-185 -8t-211.5 62.5t-94 186q0 43 17 95t44 113l131 -55q-50 -101 -50 -150
q0 -111 188 -111q54 0 101 3.5t91.5 7t90.5 7t99 3.5q78 0 132.5 -16t88.5 -49t49 -86t15 -129h253v-142h-536v-60zM624 1214q-194 -79 -320 -211q117 -43 209 -215q107 173 111 426z" />
    <glyph glyph-name="bn_k_tt_ra" horiz-adv-x="1219" 
d="M768 1341q69 -9 138 -44.5t124.5 -89.5t90.5 -121.5t35 -137.5q0 -100 -55.5 -149.5t-152.5 -49.5q-86 0 -171 77l63 122q27 -39 108 -58q20 4 33.5 6.5t20.5 9.5t9.5 17.5t2.5 30.5q0 195 -246 257q0 -131 -39 -267.5t-116 -283.5q-55 -55 -100 -116q-37 -51 -67.5 -114
t-30.5 -124q0 -39 15.5 -70t40.5 -53t58.5 -33.5t70.5 -11.5q12 0 22.5 0.5t24.5 4.5q58 23 108 59.5t87.5 81t59.5 94t22 100.5q0 31 -15 53t-45 22q-20 0 -38 -31t-36 -74l-96 103q57 143 165 143q208 0 208 -251q0 -81 -44.5 -161t-114 -143t-154 -102.5t-162.5 -39.5
q-72 0 -130.5 24t-100.5 66.5t-65 102.5t-23 131q0 145 166 331q-81 222 -271 255l-35 106q185 265 494 328v60h-660v142h947q12 19 6 53q-31 85 -220 85q-19 0 -53.5 -3t-102 -8.5t-185 -8t-211.5 62.5t-94 186q0 43 17 95t44 113l131 -55q-50 -101 -50 -150
q0 -111 188 -111q54 0 101 3.5t91.5 7t90.5 7t99 3.5q78 0 132.5 -16t88.5 -49t49 -86t15 -129h253v-142h-536v-60zM624 1214q-194 -79 -320 -211q117 -43 209 -215q107 173 111 426zM569 -243q-17 0 -49.5 -7.5t-77.5 -16t-127 -10.5q-111 0 -196.5 29t-143.5 81
t-88.5 123.5t-30.5 156.5q0 54 12.5 113.5t39.5 121.5l127 -33q-39 -122 -39 -172q0 -76 20.5 -128.5t66 -86t120 -48.5t177.5 -12q26 3 54.5 8t55 11t51.5 9t49 3q81 0 154 -33t140 -85v628h142v-960h-142v147q-28 33 -66.5 62t-81 51t-86.5 35t-81 13z" />
    <glyph glyph-name="bn_k_ta" horiz-adv-x="1825" 
d="M-108 1401v142h1974v-142h-1974zM1174 744q145 -62 145 -224q0 -79 -38.5 -144.5t-102 -112.5t-144.5 -73.5t-166 -26.5q-154 0 -289.5 105t-254.5 331q-46 88 -113 259t-120 358l130 23q65 -224 140 -398t157.5 -293.5t171.5 -181.5t183 -62q61 0 116.5 16t97.5 44.5
t66 67t24 82.5q0 115 -138 143q-83 -39 -190 -32l38 135q54 0 99 15.5t77.5 44.5t50 71t17.5 96q0 100 -72 155t-194 55q-60 0 -113 -16t-92 -46.5t-62 -72t-23 -91.5q0 -39 80 -87l-72 -104q-148 50 -148 215q0 74 34.5 136t93.5 107.5t137 71t165 25.5q73 0 137 -19
t114 -54.5t84.5 -86t49.5 -114.5q51 34 108 52t122 18q54 0 102.5 -26t84 -70.5t56.5 -102t21 -119.5q0 -57 -13.5 -113t-44 -92t-74 -57.5t-101 -18t-102.5 45.5l50 116q12 -8 40.5 -19t62.5 8q61 30 42 143q-7 69 -39.5 112.5t-105.5 51.5q-124 -4 -198 -83
q0 -105 -87 -163z" />
    <glyph glyph-name="bn_k_ta1" horiz-adv-x="1308" 
d="M647 1192q-15 0 -47.5 -10t-73 -26.5t-84.5 -36.5t-83 -39.5t-68.5 -37t-42.5 -27.5q87 0 149 -6.5t108 -23t79.5 -42.5t62.5 -64v274v39zM647 602v105h2q-43 58 -79.5 94.5t-81 57t-104 28t-146.5 7.5h-48l-110 145q6 5 13.5 10t14.5 9q61 50 112 84.5t110 63.5t134 58
t183 68v69h-700v142h1399v-142h-563v-69q84 0 154.5 -30t122 -80t80.5 -115t29 -134q0 -46 -17 -86.5t-46 -70.5t-66.5 -48.5t-79.5 -18.5q-105 0 -145 164l100 44q21 -67 53 -67q20 9 32.5 24.5t18.5 30t8 25t2 11.5q0 102 -65.5 156.5t-180.5 54.5v-590h-136zM1169 337
q0 -83 -37 -154.5t-99 -124.5t-143 -83t-168 -30q-93 0 -177.5 35.5t-156.5 95t-132 136t-106 158.5t-76.5 163t-42.5 150l140 42q25 -128 85.5 -244.5t139.5 -204t169 -139.5t173 -52q60 0 112.5 19t92.5 53.5t63 82.5t23 106q0 39 -14.5 78.5t-39.5 71.5t-58.5 51.5
t-72.5 19.5q-57 0 -94 -32.5t-37 -86.5q0 -25 11.5 -47t27.5 -45l-119 -71q-61 77 -61 163q0 65 22.5 113.5t61 81t91 48.5t113.5 16q73 0 131 -33t97 -86t60 -119.5t21 -131.5z" />
    <glyph glyph-name="bn_k_t_ba" horiz-adv-x="1825" 
d="M-108 1401v142h1974v-142h-1974zM1174 744q145 -62 145 -224q0 -79 -38.5 -144.5t-102 -112.5t-144.5 -73.5t-166 -26.5q-154 0 -289.5 105t-254.5 331q-46 88 -113 259t-120 358l130 23q65 -224 140 -398t157.5 -293.5t171.5 -181.5t183 -62q61 0 116.5 16t97.5 44.5
t66 67t24 82.5q0 115 -138 143q-83 -39 -190 -32l38 135q54 0 99 15.5t77.5 44.5t50 71t17.5 96q0 100 -72 155t-194 55q-60 0 -113 -16t-92 -46.5t-62 -72t-23 -91.5q0 -39 80 -87l-72 -104q-148 50 -148 215q0 74 34.5 136t93.5 107.5t137 71t165 25.5q73 0 137 -19
t114 -54.5t84.5 -86t49.5 -114.5q51 34 108 52t122 18q54 0 102.5 -26t84 -70.5t56.5 -102t21 -119.5q0 -57 -13.5 -113t-44 -92t-74 -57.5t-101 -18t-102.5 45.5l50 116q12 -8 40.5 -19t62.5 8q61 30 42 143q-7 69 -39.5 112.5t-105.5 51.5q-124 -4 -198 -83
q0 -105 -87 -163zM1034 -535v126q-37 70 -79 120t-92.5 81t-113.5 46t-142 15l-61 131q211 215 489 348h141v-867h-142zM1034 177q-95 -43 -170.5 -93.5t-132.5 -107.5q185 -39 303 -174v375z" />
    <glyph glyph-name="bn_k_t_ba1" horiz-adv-x="1308" 
d="M647 1192q-15 0 -47.5 -10t-73 -26.5t-84.5 -36.5t-83 -39.5t-68.5 -37t-42.5 -27.5q87 0 149 -6.5t108 -23t79.5 -42.5t62.5 -64v274v39zM647 602v105h2q-43 58 -79.5 94.5t-81 57t-104 28t-146.5 7.5h-48l-110 145q6 5 13.5 10t14.5 9q61 50 112 84.5t110 63.5t134 58
t183 68v69h-700v142h1399v-142h-563v-69q84 0 154.5 -30t122 -80t80.5 -115t29 -134q0 -46 -17 -86.5t-46 -70.5t-66.5 -48.5t-79.5 -18.5q-105 0 -145 164l100 44q21 -67 53 -67q20 9 32.5 24.5t18.5 30t8 25t2 11.5q0 102 -65.5 156.5t-180.5 54.5v-590h-136zM1169 337
q0 -83 -37 -154.5t-99 -124.5t-143 -83t-168 -30q-93 0 -177.5 35.5t-156.5 95t-132 136t-106 158.5t-76.5 163t-42.5 150l140 42q25 -128 85.5 -244.5t139.5 -204t169 -139.5t173 -52q60 0 112.5 19t92.5 53.5t63 82.5t23 106q0 39 -14.5 78.5t-39.5 71.5t-58.5 51.5
t-72.5 19.5q-57 0 -94 -32.5t-37 -86.5q0 -25 11.5 -47t27.5 -45l-119 -71q-61 77 -61 163q0 65 22.5 113.5t61 81t91 48.5t113.5 16q73 0 131 -33t97 -86t60 -119.5t21 -131.5zM884 -746v126q-37 70 -79 120t-92.5 81t-113.5 46t-142 15l-61 131q211 215 489 348h141v-867
h-142zM884 -34q-95 -43 -170.5 -93.5t-132.5 -107.5q185 -39 303 -174v375z" />
    <glyph glyph-name="bn_k_t_ra" horiz-adv-x="1825" 
d="M846 -208q-16 0 -51 -5.5t-75 -11.5t-76.5 -10.5t-52.5 -4.5q-110 0 -196 29.5t-144 81.5t-88.5 123.5t-30.5 155.5q0 57 14.5 114t38.5 121l127 -34q-19 -61 -28.5 -103.5t-9.5 -67.5q0 -76 20.5 -129.5t66 -86.5t119 -48.5t180.5 -15.5q22 0 49 5.5t54.5 13t54.5 13
t50 5.5q81 0 154 -34t139 -85v432q-57 -38 -127 -61q-81 -26 -166 -26q-154 0 -289.5 105t-254.5 331q-46 88 -113 259t-130 365l140 16q65 -224 140 -398t157.5 -293.5t171.5 -181.5t183 -62q61 0 116.5 16t97.5 44.5t66 67t24 82.5q0 115 -138 143q-36 -32 -190 -32
l38 135q54 0 99 15.5t77.5 44.5t50 71t17.5 96q0 100 -72 155t-194 55q-60 0 -113 -16t-92 -46.5t-62 -72t-23 -91.5q0 -39 80 -87l-72 -104q-148 50 -148 215q0 74 34.5 136t93.5 107.5t137 71t165 25.5q73 0 137 -19t114 -54.5t84.5 -86t49.5 -114.5q51 34 108 52t122 18
q54 0 102.5 -26t84 -70.5t56.5 -102t21 -119.5q0 -57 -19 -108.5t-52 -89t-77.5 -60t-94.5 -22.5q-35 4 -53.5 12.5t-39.5 18.5l51 131l54 -26q91 26 91 157q0 69 -38.5 116.5t-106.5 47.5q-32 0 -51 -1.5t-38 -9t-43 -24.5t-66 -48q0 -105 -87 -163q145 -62 145 -224
q0 -48 -14 -91v-943h-144v147q-28 32 -66.5 60.5t-81 50.5t-86 35t-81.5 13zM-108 1401v142h1974v-142h-1974z" />
    <glyph glyph-name="bn_k_t_ra1" horiz-adv-x="1308" 
d="M647 1192q-15 0 -47.5 -10t-73 -26.5t-84.5 -36.5t-83 -39.5t-68.5 -37t-42.5 -27.5q87 0 149 -6.5t108 -23t79.5 -42.5t62.5 -64v274v39zM647 602v105h2q-43 58 -79.5 94.5t-81 57t-104 28t-146.5 7.5h-48l-110 145q6 5 13.5 10t14.5 9q61 50 112 84.5t110 63.5t134 58
t183 68v69h-700v142h1399v-142h-563v-69q84 0 154.5 -30t122 -80t80.5 -115t29 -134q0 -46 -17 -86.5t-46 -70.5t-66.5 -48.5t-79.5 -18.5q-105 0 -145 164l100 44q21 -67 53 -67q20 9 32.5 24.5t18.5 30t8 25t2 11.5q0 102 -65.5 156.5t-180.5 54.5v-590h-136zM495 196
q-49 54 -49 136q0 57 37 121.5t92 120t120 92t120 36.5q40 0 78.5 -21t68.5 -56t48.5 -81t18.5 -96v-757h-142v116q-112 96 -248 96q-17 0 -46 -9t-62 -19t-66.5 -19t-60.5 -9q-61 0 -119 27t-103.5 73t-73.5 106t-28 127q0 71 17.5 132.5t40.5 115.5l125 -30
q-21 -69 -31.5 -120t-10.5 -82q0 -46 17 -83t47 -64t69.5 -42t85.5 -15q28 0 55 8t53.5 18t53 18.5t53.5 8.5q69 0 127 -30t105 -65v501q0 111 -82 111q-34 0 -72.5 -24.5t-71 -60.5t-54 -75.5t-21.5 -72.5q0 -13 2.5 -24.5t10.5 -22.5z" />
    <glyph glyph-name="bn_k_t_ra2" horiz-adv-x="1324" 
d="M664 1192q-15 0 -47 -10t-72.5 -26.5t-85.5 -36.5t-84 -39.5t-68.5 -37t-40.5 -27.5q86 0 148.5 -6.5t107.5 -23t78.5 -42.5t63.5 -64v274v39zM664 602v105h3q-43 58 -79.5 94.5t-81 57t-104.5 28t-148 7.5h-46l-111 145q8 5 14 10t13 9q61 50 113 84.5t111.5 63.5
t134.5 58t181 68v69h-700v142h1399v-142h-564v-69q84 0 155.5 -30t123.5 -80t81.5 -115t29.5 -134q0 -46 -17.5 -86.5t-46.5 -70.5t-66.5 -48.5t-79.5 -18.5q-104 0 -147 164l100 44q10 -34 23.5 -50.5t28.5 -16.5q20 9 32.5 24.5t18.5 30t8 25t2 11.5q0 102 -65.5 156.5
t-180.5 54.5v-590h-135zM1189 337q0 -83 -37 -154.5t-99.5 -124.5t-143.5 -83t-168 -30q-93 0 -177.5 35.5t-156.5 95t-132 136t-106 158.5t-77 163t-45 150l141 42q24 -128 84.5 -244.5t139.5 -204t169 -139.5t174 -52q59 0 111.5 19t92.5 53.5t63 82.5t23 106
q0 39 -14 78.5t-38.5 71.5t-58.5 51.5t-71 19.5q-58 0 -94 -32.5t-36 -86.5q0 -25 11 -47t27 -45l-119 -71q-31 39 -47 80t-16 83q0 65 22 113.5t60.5 81t91 48.5t113.5 16q74 0 132 -33t98.5 -86t61.5 -119.5t21 -131.5zM730 -382q-16 0 -51 -5.5t-75 -11.5t-76.5 -10.5
t-52.5 -4.5q-111 0 -196.5 29t-143.5 81t-88.5 123.5t-30.5 156.5q0 54 14.5 112.5t38.5 122.5l127 -37q-19 -58 -28.5 -101t-9.5 -70q0 -75 20 -127.5t66 -85.5t119.5 -48.5t180.5 -15.5q22 0 49 5.5t54.5 11.5t54.5 11.5t50 5.5q81 0 154 -32.5t139 -83.5v627h144v-962
h-144v150q-28 31 -66.5 59t-81 50.5t-86 36t-81.5 13.5z" />
    <glyph glyph-name="bn_k_na" horiz-adv-x="1708" 
d="M910 1133q-23 -3 -68.5 -18.5t-102.5 -39t-118.5 -52.5t-115.5 -57.5t-93.5 -54t-54.5 -43.5q46 -9 99 -30t108 -51t108 -67t100 -77.5t82.5 -83t55.5 -84.5v658zM1052 1274q108 -10 206 -50.5t173 -107t118.5 -157t43.5 -202.5q0 -46 -16.5 -95t-46.5 -90t-71 -67.5
t-90 -26.5q-39 0 -101.5 24t-122.5 78l88 108q77 -68 116 -68q24 0 44 14.5t32.5 37.5t19.5 49.5t7 49.5q0 74 -35.5 140t-92 115.5t-126.5 78t-139 28.5h-7v-1133h-142v243q-16 46 -55 100.5t-93 110.5t-119 109t-131.5 93.5t-133 70.5t-156.5 17l-73 150
q182 143 374.5 236t386.5 144v127h-975v142h1785v-142h-668v-127zM478 248q-28 0 -54.5 -10.5t-46.5 -30t-32.5 -45.5t-12.5 -54q0 -24 4 -42t16.5 -32.5t36.5 -29t65 -31.5l-39 -116q-53 1 -95 21.5t-70 53.5t-44 78t-16 98t24.5 103.5t65 90t94 64t111.5 24.5
q128 0 228 -71.5t197 -202.5v263h142v-565h-142v33q-169 401 -432 401z" />
    <glyph glyph-name="bn_k_ma" horiz-adv-x="1602" 
d="M647 1192q-15 0 -96 -25t-185.5 -83.5t-117.5 -68.5q87 0 149 -6.5t108 -23t79.5 -42.5t62.5 -64v274v39zM649 707q-43 58 -79.5 94.5t-81 57t-104 28t-146.5 7.5h-48l-110 145q6 5 150.5 107.5t416.5 185.5v69h-744v142h1725v-142h-238v-1443h-140q0 60 -23.5 122.5
t-64 121.5t-94 110.5t-113.5 90t-124 61t-124 22.5q-95 0 -95 -72q0 -44 106 -68l-58 -114q-40 0 -75.5 14.5t-61 39t-39.5 60t-14 77.5q0 37 13.5 71.5t37.5 61t56.5 42.5t69.5 16v93h2zM1250 1401h-467v-69q77 0 147 -34t123.5 -90t84.5 -128.5t31 -147.5q0 -46 -17 -86.5
t-46 -71t-66.5 -49t-79.5 -18.5q-105 0 -145 164l100 44q21 -66 53 -66q20 10 32.5 24.5t18.5 29.5t8 26t2 13q0 56 -17 101.5t-49.5 79t-77.5 51.5t-102 18v-572q74 -8 143.5 -36.5t129.5 -72.5t109.5 -100.5t84.5 -122.5v1113z" />
    <glyph glyph-name="bn_k_la" horiz-adv-x="1708" 
d="M910 1133q-23 -3 -68.5 -18.5t-102.5 -39t-118.5 -52.5t-115.5 -57.5t-93.5 -54t-54.5 -43.5q46 -9 99 -30t108 -51t108 -67t100 -77.5t82.5 -83t55.5 -84.5v658zM1052 1274q108 -10 206 -50.5t173 -107t118.5 -157t43.5 -202.5q0 -46 -16.5 -95t-46.5 -90t-71 -67.5
t-90 -26.5q-39 0 -101.5 24t-122.5 78l88 108q77 -68 116 -68q24 0 44 14.5t32.5 37.5t19.5 49.5t7 49.5q0 74 -35.5 140t-92 115.5t-126.5 78t-139 28.5h-7v-1133h-142v243q-16 46 -55 100.5t-93 110.5t-119 109t-131.5 93.5t-133 70.5t-156.5 17l-73 150
q182 143 374.5 236t386.5 144v127h-975v142h1785v-142h-668v-127zM910 -143v111q0 37 -3 44q-4 18 -11 39t-18.5 37.5t-27.5 28t-38 11.5q-20 0 -33 -8t-21 -21t-11.5 -28.5t-3.5 -31.5q0 -19 4.5 -38t12.5 -33l-116 -42q-14 54 -38.5 102t-56.5 83.5t-70 56.5t-78 21
q-36 0 -66 -12t-53 -33.5t-36.5 -51t-13.5 -61.5t7.5 -54.5t25.5 -37.5t50.5 -24t82.5 -16l44 -126q-36 -7 -50 -8q-9 -1 -17 -3q-62 0 -114 20t-90 55.5t-59.5 86t-21.5 113.5q0 53 26.5 106t69 95t94.5 67.5t104 25.5q69 0 135.5 -39t132.5 -112q23 43 58 66.5t81 23.5
q54 0 119 -65v578h142v-926h-142z" />
    <glyph glyph-name="bn_k_ssa" horiz-adv-x="1836" 
d="M1092 1401h-229q0 -51 14 -96t43 -78.5t72 -52t100 -18.5v245zM1092 1015l-119 22q-48 9 -96 46t-85 89t-61 113t-24 116h-356q30 -31 42.5 -63.5t15.5 -63.5q81 0 157.5 -35.5t135 -96.5t94.5 -141t36 -169v-19t-3 -17q93 -43 156.5 -103t106.5 -137v459zM130 1029
q-3 10 -4.5 21.5t-1.5 22.5q0 33 11.5 64t32.5 56t50 43t64 25q0 43 -28.5 78t-79.5 62h-293v142h2055v-142h-703v-245q129 -7 199.5 -13t82.5 -9q42 -12 83.5 -42.5t74.5 -73.5t53.5 -95t20.5 -105q0 -115 -61.5 -177.5t-176.5 -62.5q-67 0 -127 39l67 130q14 -15 31.5 -22
t36.5 -7q89 0 89 105q0 88 -70 143t-195 55q2 0 -25 -1.5t-83 -4.5v-1023h-141v343q-35 75 -83 138t-102 107.5t-112 69.5t-112 25q-27 -9 -41 -16t-23 -18t-15 -29t-15 -50q-25 14 -54.5 34.5t-67.5 44.5q0 35 28.5 73t79.5 77q19 7 49.5 13t69.5 14v34q0 66 -28.5 119.5
t-75.5 90.5t-110.5 57t-133.5 20q-42 0 -59.5 -25.5t-17.5 -60.5q0 -11 0.5 -20.5t4.5 -19.5z" />
    <glyph glyph-name="bn_k_ss_nna" horiz-adv-x="2193" 
d="M1601 1401h-368v-243q133 14 243 -7t173.5 -82.5t80.5 -122.5t17 -128q0 -115 -61.5 -177.5t-176.5 -62.5q-67 0 -127 39l67 130q14 -15 31.5 -22t36.5 -7q89 0 89 105q9 91 -62 144.5t-203 50.5q2 0 -25 0t-83 -10v-683q21 -1 40 -4q26 -3 53 -5q133 -23 248 -96
t276 -225v1776h142v-228h205v-142h-205v-1802h-142v170q-54 75 -156 163t-152 124t-153 81.5t-153 35.5q-64 -6 -91 -23t-37.5 -42t-21.5 -65q23 -46 43 -56.5t38.5 -15.5t36.5 -5l-35 -133q-117 4 -170 52t-76.5 126.5t33.5 185.5q50 83 136 106v32q-35 75 -83 138
t-92.5 106.5t-99.5 77t-132 30.5q-32 -5 -49.5 -16.5t-25 -26t-12 -31t-1.5 -41.5l-145 24q6 83 38.5 133.5t77.5 69.5q30 16 64 20t62 -1v34q0 66 -28.5 119.5t-71.5 92t-107 61t-141 14.5q-40 -3 -57.5 -28.5t-19.5 -57.5l5 -40l-147 5q0 21 -1.5 32.5t-1.5 22.5
q0 33 11.5 64t32.5 56t50 43t64 25q0 43 -28.5 78t-79.5 62h-193v142h1620v-142zM1092 1011q-24 -1 -54 3.5t-66 15.5q-58 19 -100.5 54.5t-79.5 87.5t-60 113t-23 116h-358q30 -31 42.5 -63.5t15.5 -63.5q81 0 157.5 -35.5t135 -96.5t94.5 -141t36 -169v-19v-18
q85 -33 151 -97.5t109 -141.5v455zM1092 1401h-233q2 -51 17 -96t44 -78.5t72 -52t100 -18.5v245z" />
    <glyph glyph-name="bn_k_ss_ma" horiz-adv-x="2172" 
d="M1236 173q-64 -6 -91 -23t-37.5 -42t-21.5 -65q23 -46 43 -56.5t38.5 -15.5t36.5 -5l-35 -133q-117 4 -170 52t-76.5 126.5t33.5 185.5q50 83 136 106v32q-35 75 -83 138t-102 107.5t-112 69.5t-112 25q-27 -9 -41 -16t-23 -18t-15 -29t-15 -50q-25 14 -54.5 34.5
t-67.5 44.5q0 35 28.5 73t79.5 77q19 7 49.5 13t69.5 14v34q0 66 -28.5 119.5t-75.5 90.5t-110.5 57t-133.5 20q-42 0 -59.5 -25.5t-17.5 -60.5l5 -40l-147 5q0 21 -1.5 32.5t-1.5 22.5q0 33 11.5 64t32.5 56t50 43t64 25q0 43 -28.5 78t-79.5 62h-293v142h2296v-142h-205
v-1802h-142v150q0 46 -119 158.5t-169 148.5t-153 81.5t-153 35.5zM1233 1156q129 -7 199.5 -13t82.5 -9q42 -12 83.5 -42.5t74.5 -73.5t53.5 -95t20.5 -105q0 -115 -61.5 -177.5t-176.5 -62.5q-67 0 -127 39l67 130q14 -15 31.5 -22t36.5 -7q89 0 89 105q0 88 -70 143
t-195 55q2 0 -25 -1.5t-83 -4.5v-690q21 -1 40 -4q26 -3 53 -5q133 -23 248 -96t256 -225v1406h-597v-245zM1092 1015l-119 22q-48 9 -96 46t-85 89t-61 113t-24 116h-356q30 -31 42.5 -63.5t15.5 -63.5q81 0 157.5 -35.5t135 -96.5t94.5 -141t36 -169v-19q0 -8 -3 -17
q93 -43 156.5 -103t106.5 -137v459zM1092 1401h-229q0 -51 14 -96t43 -78.5t72 -52t100 -18.5v245z" />
    <glyph glyph-name="bn_k_sa" horiz-adv-x="1750" 
d="M829 1177q-123 -32 -254.5 -89t-270.5 -148q62 -18 134 -58.5t143 -95t136 -120t112 -133.5v644zM965 1319q80 -23 149 -61.5t120 -90.5t80 -115.5t29 -136.5q0 -47 -13.5 -93t-37.5 -82.5t-58 -59.5t-76 -23q-31 0 -74 15t-80 68l61 109q19 -19 38 -34.5t44 -15.5
q19 0 37.5 28t18.5 78q0 89 -60 153t-178 119v-763q62 15 103.5 22t62.5 7q31 0 71.5 -9t80 -29.5t68.5 -41t62 -62.5v1100h-448v-82zM1554 -190h-141v298q-27 38 -61 72.5t-70.5 61.5t-72 43t-62.5 16q-64 0 -131 -31t-140 -99q-73 -64 -129 -92.5t-95 -28.5q-43 0 -82 11
t-77.5 39t-80 77.5t-88.5 126.5l116 63q91 -177 220 -177q23 0 46.5 13t45.5 31t41.5 39t35.5 36q-215 378 -636 498l-101 177q204 127 387.5 208t346.5 127v82h-889v142h1846v-142h-229v-1591z" />
    <glyph glyph-name="bn_g_ga" horiz-adv-x="1339" 
d="M1364 1543v-142h-226v-1412h-141v285q0 113 -31.5 209t-86.5 165t-127.5 107.5t-155.5 38.5q-270 0 -305 -288q92 47 160 70t114 23q45 0 84 -12.5t68.5 -35.5t46.5 -57.5t17 -76.5q0 -43 -27 -94.5t-71.5 -110t-102 -122t-117.5 -129.5l-102 100q50 54 101 106.5t91 99
t68 85t33 65.5q-12 56 -70 56q-24 0 -65.5 -17t-84 -38.5t-79 -40.5t-49.5 -23q-32 0 -60.5 16t-49.5 41.5t-33 57.5t-12 64q0 74 29.5 138.5t82 113.5t125 83t158.5 50l16 16q3 22 4 31q2 6 2 11q0 82 -114 82q-17 0 -50 -13.5t-68 -29t-67.5 -29t-48.5 -13.5
q-30 0 -55.5 13.5t-44.5 35.5t-30 50t-11 59q0 81 33 152t90 123.5t131 83t158 30.5q337 0 506 -314v583h141v-246h226zM496 1388q-235 0 -274 -280q30 14 60.5 29t60.5 27t61.5 20t63.5 8q229 0 229 -211q0 -16 -1 -35t-4 -41q89 -23 166.5 -71t138.5 -121v169
q0 55 -21.5 113.5t-58.5 115.5t-87 107t-105.5 87.5t-114 60t-114.5 22.5z" />
    <glyph glyph-name="bn_g_da" horiz-adv-x="2097" 
d="M1006 1543h1110v-142h-970v-638q144 186 314 284t378 117l123 -91q-33 -39 -56 -107t-37 -150t-21 -169t-7 -161q0 -57 4 -119.5t11 -124.5t18 -119.5t25 -103.5l-151 -19q-11 46 -19.5 110.5t-14.5 135t-9.5 141.5t-3.5 130q0 50 3.5 115.5t11.5 132.5t21 129t33 106
q-362 -44 -639 -538l-124 137v316q-205 492 -514 492q-54 0 -107 -22t-94 -59t-66.5 -87t-25.5 -108v-12q0 -8 2 -27q9 3 37 22t68 39.5t85 37.5t87 17t80 -13.5t65 -37.5t43 -58t16 -76q0 -110 -104 -258q-13 -14 -58.5 -65.5t-122.5 -140.5l-104 90q87 99 137.5 157
t77 94.5t34.5 61t8 56.5q0 27 -25 48t-52 21q-16 0 -52 -19.5t-75 -42.5t-73 -42.5t-45 -19.5q-153 0 -153 187q0 81 33 152t88 124.5t127.5 83.5t152.5 30q85 0 166.5 -27.5t151 -76t125 -116t87.5 -146.5v369z" />
    <glyph glyph-name="bn_g_dha" horiz-adv-x="1715" 
d="M547 454q53 0 117.5 -20t129.5 -52t123.5 -74.5t99.5 -88.5v478q-74 -29 -127 -50.5t-92 -39t-67.5 -32.5t-54 -31t-51 -34.5t-59.5 -42.5zM1159 879q147 39 262 39q64 0 111 -62.5t22 -327.5q-11 -248 -3 -362t41 -213l-138 -38q-27 101 -38.5 220t-11.5 242
q2 120 14 303q12 41 -8 81t-251 -28v-907h-142v179q-92 153 -211 227t-264 74h-39l-138 177q105 102 269 192t383 174v35q-59 161 -110.5 260t-109.5 153t-127.5 72.5t-164.5 18.5q-52 0 -98 -21t-80 -56t-53.5 -82.5t-19.5 -99.5q11 1 42.5 14t71.5 27.5t82 27.5t73 13
q44 0 80.5 -15t63 -41t40.5 -63.5t14 -81.5q0 -50 -14 -93.5t-49 -92t-97.5 -108.5t-156.5 -144l-100 95q282 235 282 343q0 13 -6.5 26t-16.5 24t-23 17.5t-25 6.5q-17 0 -52.5 -17.5t-76 -39t-77.5 -40.5t-58 -22q-158 29 -158 199q0 78 36 146t97 118t143 78.5t175 28.5
q269 0 473 -305v525h136v-212h607v-142h-601v-522z" />
    <glyph glyph-name="bn_g_dh_ba" horiz-adv-x="1715" 
d="M547 454q53 0 117.5 -20t129.5 -52t123.5 -74.5t99.5 -88.5v478q-74 -29 -127 -50.5t-92 -39t-67.5 -32.5t-54 -31t-51 -34.5t-59.5 -42.5zM1159 879q147 39 262 39q64 0 111 -62.5t22 -327.5q-11 -248 -3 -362t41 -213l-138 -38q-27 101 -38.5 220t-11.5 242
q2 120 14 303q12 41 -8 81t-251 -28v-907h-142v179q-92 153 -211 227t-264 74h-39l-138 177q105 102 269 192t383 174v35q-59 161 -110.5 260t-109.5 153t-127.5 72.5t-164.5 18.5q-52 0 -98 -21t-80 -56t-53.5 -82.5t-19.5 -99.5q11 1 42.5 14t71.5 27.5t82 27.5t73 13
q44 0 80.5 -15t63 -41t40.5 -63.5t14 -81.5q0 -50 -14 -93.5t-49 -92t-97.5 -108.5t-156.5 -144l-100 95q282 235 282 343q0 13 -6.5 26t-16.5 24t-23 17.5t-25 6.5q-17 0 -52.5 -17.5t-76 -39t-77.5 -40.5t-58 -22q-158 29 -158 199q0 78 36 146t97 118t143 78.5t175 28.5
q269 0 473 -305v525h136v-212h607v-142h-601v-522zM1016 -670v126q-37 70 -79 120t-92.5 81t-113.5 46t-142 15l-61 131q211 215 489 348h141v-867h-142zM1016 42q-95 -43 -170.5 -93.5t-132.5 -107.5q185 -39 303 -174v375z" />
    <glyph glyph-name="bn_g_la" horiz-adv-x="1414" 
d="M1435 1543v-142h-221v-1401h-142v981q-233 428 -498 428q-46 0 -96 -20t-91.5 -54.5t-68.5 -79t-27 -94.5q0 -45 29 -45q18 0 55.5 11.5t79 25t78.5 25t53 11.5q45 0 84 -14t68.5 -41t46.5 -65.5t17 -87.5q0 -37 -25.5 -81.5t-68 -94.5t-98 -105t-116.5 -111l-116 89
q91 86 145.5 144t85 93t40.5 53.5t11 26.5q0 38 -22.5 52t-66.5 14q-8 0 -43 -13.5t-77.5 -29.5t-83 -29.5t-58.5 -13.5q-37 0 -67 14.5t-51 39t-31.5 57.5t-10.5 70q0 78 35.5 150t94.5 126t136 86.5t159 32.5q89 0 156.5 -21.5t125 -64t109.5 -108t107 -151.5v566h142
v-229h221zM1072 -50v111q0 37 -3 44q-4 18 -11 39t-18.5 37.5t-27.5 28t-38 11.5q-20 0 -33 -8t-21 -21t-11.5 -28.5t-3.5 -31.5q0 -19 4.5 -38t12.5 -33l-116 -42q-14 54 -38.5 102t-56.5 83.5t-70 56.5t-78 21q-36 0 -66 -12t-53 -33.5t-36.5 -51t-13.5 -61.5t7.5 -54.5
t25.5 -37.5t50.5 -24t82.5 -16l44 -126q-36 -7 -50 -8q-9 -1 -17 -3q-62 0 -114 20t-90 55.5t-59.5 86t-21.5 113.5q0 53 26.5 106t69 95t94.5 67.5t104 25.5q69 0 135.5 -39t132.5 -112q23 43 58 66.5t81 23.5q54 0 119 -65v578h142v-926h-142z" />
    <glyph glyph-name="bn_g_na" horiz-adv-x="1415" 
d="M1435 1543v-142h-221v-1401h-142v981q-233 428 -498 428q-46 0 -96 -20t-91.5 -54.5t-68.5 -79t-27 -94.5q0 -45 29 -45q18 0 55.5 11.5t79 25t78.5 25t53 11.5q45 0 84 -14t68.5 -41t46.5 -65.5t17 -87.5q0 -37 -25.5 -81.5t-68 -94.5t-98 -105t-116.5 -111l-116 89
q91 86 145.5 144t85 93t40.5 53.5t11 26.5q0 38 -22.5 52t-66.5 14q-8 0 -43 -13.5t-77.5 -29.5t-83 -29.5t-58.5 -13.5q-37 0 -67 14.5t-51 39t-31.5 57.5t-10.5 70q0 78 35.5 150t94.5 126t136 86.5t159 32.5q89 0 156.5 -21.5t125 -64t109.5 -108t107 -151.5v566h142
v-229h221zM640 284q-28 0 -54.5 -10.5t-46.5 -30t-32.5 -45.5t-12.5 -54q0 -24 4 -42t16.5 -32.5t36.5 -29t65 -31.5l-39 -116q-53 1 -95 21.5t-70 53.5t-44 78t-16 98t24.5 103.5t65 90t94 64t111.5 24.5q128 0 228 -71.5t197 -202.5v263h142v-565h-142v33
q-169 401 -432 401z" />
    <glyph glyph-name="bn_g_ma" horiz-adv-x="1824" 
d="M1435 1543v-142h-221v-1401h-142v981q-233 428 -498 428q-46 0 -96 -20t-91.5 -54.5t-68.5 -79t-27 -94.5q0 -45 29 -45q18 0 55.5 11.5t79 25t78.5 25t53 11.5q45 0 84 -14t68.5 -41t46.5 -65.5t17 -87.5q0 -37 -25.5 -81.5t-68 -94.5t-98 -105t-116.5 -111l-116 89
q91 86 145.5 144t85 93t40.5 53.5t11 26.5q0 38 -22.5 52t-66.5 14q-8 0 -43 -13.5t-77.5 -29.5t-83 -29.5t-58.5 -13.5q-37 0 -67 14.5t-51 39t-31.5 57.5t-10.5 70q0 78 35.5 150t94.5 126t136 86.5t159 32.5q89 0 156.5 -21.5t125 -64t109.5 -108t107 -151.5v566h142
v-229h221zM1164 5q-12 0 -26.5 -6t-27.5 -16t-22 -22t-9 -24q0 -14 10.5 -25.5t26 -20t34 -13.5t36.5 -5l-46 -111q-40 0 -76.5 13.5t-65 37.5t-44.5 57.5t-16 74.5q0 39 21.5 75.5t56.5 64.5t81 45t94 17q80 0 152.5 -40t139.5 -112v1406h-184v142h531v-142h-205v-1802
h-142v150q0 46 -34.5 92t-84.5 82t-104.5 59t-95.5 23z" />
    <glyph glyph-name="bn_gh_na" horiz-adv-x="1328" 
d="M298 752l216 227q-13 -3 -25.5 -4.5t-24.5 -1.5q-60 0 -114.5 22.5t-97 60t-67.5 87.5t-25 107q0 38 11.5 75.5t38.5 75.5h-219v142h1354v-142h-217v-1401h-142v180q-39 90 -104.5 167t-150.5 136.5t-184.5 100t-204.5 57.5zM372 1401q-39 -35 -54.5 -68t-15.5 -64
q0 -38 22 -66.5t57 -48t80.5 -29.5t91.5 -10q59 0 102.5 18.5t90.5 69.5l90 -100q-85 -81 -174 -168t-182 -183q93 -35 160 -63.5t121.5 -63.5t107 -82.5t117.5 -117.5v976h-614zM556 247q-28 0 -54.5 -10.5t-46.5 -30t-32.5 -45.5t-12.5 -54q0 -24 4 -42t16.5 -32.5
t36.5 -29t65 -31.5l-39 -116q-53 1 -95 21.5t-70 53.5t-44 78t-16 98t24.5 103.5t65 90t94 64t111.5 24.5q128 0 228 -71.5t197 -202.5v263h142v-565h-142v33q-169 401 -432 401z" />
    <glyph glyph-name="bn_ng_ka" horiz-adv-x="1462" 
d="M852 1401q16 -28 43.5 -54.5t59.5 -47.5t64.5 -33.5t56.5 -12.5q61 0 77 24q3 14 5 24t3 17q1 6 3 12q0 71 -38 71h-274zM791 763q-43 -8 -133.5 -48t-226.5 -113q98 -23 191 -84.5t177 -161.5v407h-8zM1145 431q85 21 85 122q0 48 -21 86.5t-59 66t-92 42.5t-118 15
v-763h-141v138q-50 77 -98.5 132t-107 96.5t-133.5 73t-178 61.5l-55 140q96 53 162 90t111 62t76 41t57.5 27.5t53.5 21t65 22.5l42 13q0 235 -296 235q-39 0 -82 -9.5t-79 -26.5t-59.5 -41t-23.5 -53q0 -50 73 -58l-21 -105q-37 0 -72.5 12t-61.5 33.5t-42.5 53
t-16.5 70.5t7.5 66t30.5 51t66.5 50.5t114.5 64.5q-27 92 -147 140h-234v142h1545v-142h-235q24 -48 24 -104q0 -42 -15 -76t-41 -58.5t-62 -38t-78 -13.5q-162 0 -403 290h-290q55 -46 74 -110q231 -11 350.5 -103.5t119.5 -269.5q432 -46 432 -377q0 -33 -13 -71.5
t-36 -73t-53.5 -61t-63.5 -37.5z" />
    <glyph glyph-name="bn_ng_k_ra" horiz-adv-x="1625" 
d="M992 1401q16 -28 43.5 -54.5t59.5 -47.5t64.5 -33.5t56.5 -12.5q61 0 77 24q3 14 5 24t3 17q1 6 3 12q0 71 -38 71h-274zM931 763q-43 -8 -133.5 -48t-226.5 -113q98 -23 191 -84.5t177 -161.5v407h-8zM1285 431q85 21 85 122q0 48 -21 86.5t-59 66t-92 42.5t-118 15
v-763h-141v138q-50 77 -98.5 132t-107 96.5t-133.5 73t-178 61.5l-55 140q96 53 162 90t111 62t76 41t57.5 27.5t53.5 21t65 22.5l42 13q0 235 -296 235q-39 0 -82 -9.5t-79 -26.5t-59.5 -41t-23.5 -53q0 -50 73 -58l-21 -105q-37 0 -72.5 12t-61.5 33.5t-42.5 53
t-16.5 70.5t7.5 66t30.5 51t66.5 50.5t114.5 64.5q-27 92 -147 140h-334v142h1645v-142h-235q24 -48 24 -104q0 -42 -15 -76t-41 -58.5t-62 -38t-78 -13.5q-162 0 -403 290h-290q55 -46 74 -110q231 -11 350.5 -103.5t119.5 -269.5q432 -46 432 -377q0 -33 -13 -71.5
t-36 -73t-53.5 -61t-63.5 -37.5zM623 -48q-17 0 -49.5 -7.5t-72.5 -10.5t-89 0.5t-92 22.5t-101 71t-88.5 123.5t-30.5 156.5q0 54 12.5 113.5t39.5 121.5l127 -33q-39 -122 -39 -172q0 -76 20.5 -128.5t66 -86t88 -43.5t72.5 -7t56.5 9t51.5 9t49 3q81 0 154 -33t140 -85
v628h142v-960h-142v147q-28 33 -66.5 62t-81 51t-86.5 35t-81 13z" />
    <glyph glyph-name="bn_ng_k_ssa" horiz-adv-x="2630" 
d="M-39 1543h877q52 0 102 -6q8 -1 17 -3v9h1771v-142h-702v-245q130 -7 200 -13t82 -9q42 -12 84 -42.5t75 -73.5t53.5 -95t20.5 -105q0 -115 -61.5 -177.5t-176.5 -62.5q-69 0 -127 39l66 130q15 -15 32.5 -22t36.5 -7q89 0 89 105q0 88 -70 143t-196 55q1 0 -24 -2
q-27 -1 -84 -4v-1023h-140v343q-35 75 -83 138t-102 107.5t-112 69.5t-112 25q-27 -9 -42 -16t-23.5 -18t-14 -29t-15.5 -50q-25 14 -54 34.5t-64 44.5q0 70 108 150q16 7 47.5 13t70.5 14v34q0 66 -28 119.5t-77 90.5t-112 57t-134 20q-39 0 -58.5 -25.5t-19.5 -60.5
q0 -11 0.5 -20.5t6.5 -19.5q-68 0 -98 4t-47 12q-2 10 -2 21v23q0 22 4 43q-44 -13 -93 -13q-65 0 -128.5 29t-125.5 68q-50 -136 -50 -221q0 -158 97 -158q38 0 63.5 6.5t50 29t50.5 66.5t66 116q126 -62 193.5 -159t67.5 -236q0 -167 -100.5 -251t-297.5 -84
q-101 0 -191 46t-165.5 122t-135.5 175t-102.5 205t-65 211t-22.5 196l141 27q0 -85 21 -180.5t58.5 -188.5t89.5 -178t115 -150.5t134 -104t146 -38.5q235 0 235 201q0 123 -74 197q-53 -81 -116.5 -125t-136.5 -44q-59 0 -106.5 21t-81.5 58t-52.5 88t-18.5 110
q0 105 37 217.5t112 226.5h-578v142zM1886 1015l-119 22q-48 9 -96 46t-86 89t-61 113t-23 116h-354q27 -31 41.5 -63.5t17.5 -63.5q79 0 154.5 -35.5t134.5 -96.5t94.5 -141t35.5 -169v-19q0 -8 -2 -17q91 -43 155.5 -103t107.5 -137v459zM1886 1401h-227q0 -51 14 -96
t42.5 -78.5t71 -52t99.5 -18.5v245zM863 1424q-54 -2 -108 -28t-106 -82q35 -32 77.5 -50.5t88.5 -18.5q25 0 53 7.5t51 21t38.5 30t15.5 37.5q0 83 -110 83z" />
    <glyph glyph-name="bn_ng_k_ss_ra" horiz-adv-x="2733" 
d="M-9 1543h877q52 0 102 -6q8 -1 17 -3v9h1771v-142h-702v-245q130 -7 200 -13t82 -9q42 -12 84 -42.5t75 -73.5t53.5 -95t20.5 -105q0 -115 -61.5 -177.5t-176.5 -62.5q-69 0 -127 39l66 130q15 -15 32.5 -22t36.5 -7q89 0 89 105q0 88 -70 143t-196 55q1 0 -24 -2
q-27 -1 -84 -4v-1023h-140v343q-35 75 -83 138t-102 107.5t-112 69.5t-112 25q-27 -9 -42 -16t-23.5 -18t-14 -29t-15.5 -50q-25 14 -54 34.5t-64 44.5q0 70 108 150q16 7 47.5 13t70.5 14v34q0 66 -28 119.5t-77 90.5t-112 57t-134 20q-39 0 -58.5 -25.5t-19.5 -60.5
q0 -11 0.5 -20.5t6.5 -19.5q-68 0 -98 4t-47 12q-2 10 -2 21v23q0 22 4 43q-44 -13 -93 -13q-65 0 -128.5 29t-125.5 68q-50 -136 -50 -221q0 -158 97 -158q38 0 63.5 6.5t50 29t50.5 66.5t66 116q126 -62 193.5 -159t67.5 -236q0 -167 -100.5 -251t-297.5 -84
q-101 0 -191 46t-165.5 122t-135.5 175t-102.5 205t-65 211t-22.5 196l141 27q0 -85 21 -180.5t58.5 -188.5t89.5 -178t115 -150.5t134 -104t146 -38.5q235 0 235 201q0 123 -74 197q-53 -81 -116.5 -125t-136.5 -44q-59 0 -106.5 21t-81.5 58t-52.5 88t-18.5 110
q0 105 37 217.5t112 226.5h-578v142zM1916 1015l-119 22q-48 9 -96 46t-86 89t-61 113t-23 116h-354q27 -31 41.5 -63.5t17.5 -63.5q79 0 154.5 -35.5t134.5 -96.5t94.5 -141t35.5 -169v-19q0 -8 -2 -17q91 -43 155.5 -103t107.5 -137v459zM1916 1401h-227q0 -51 14 -96
t42.5 -78.5t71 -52t99.5 -18.5v245zM893 1424q-54 -2 -108 -28t-106 -82q35 -32 77.5 -50.5t88.5 -18.5q25 0 53 7.5t51 21t38.5 30t15.5 37.5q0 83 -110 83zM1657 156q-53 -8 -105 -19.5t-103.5 -21.5t-103 -17.5t-104.5 -7.5q-73 0 -133 31.5t-102 83.5t-65 120.5
t-23 140.5q0 63 16.5 121.5t55.5 113.5l127 -33q-58 -89 -58 -191q0 -48 13.5 -92.5t39.5 -79t65.5 -55t91.5 -20.5q26 0 65 5t83.5 13t90.5 16t87 16t73.5 13t48.5 5q33 0 54.5 -4t41 -16.5t42.5 -34.5t58 -59v737h142v-1069h-142v146q-43 55 -72 87t-56 47.5t-56.5 19.5
t-71.5 4z" />
    <glyph glyph-name="bn_ng_kha" horiz-adv-x="2238" 
d="M917 1424q-54 -2 -107 -28t-106 -82q35 -32 77.5 -50.5t88.5 -18.5q24 0 52.5 7.5t51.5 21t38.5 30t15.5 37.5q0 83 -111 83zM24 1543h888q66 0 114.5 -9.5t80.5 -32.5t47.5 -62t15.5 -98q0 -49 -22.5 -92t-61 -75.5t-90.5 -51.5t-110 -19q-65 0 -127.5 29t-126.5 68
q-49 -136 -49 -221q0 -158 97 -158q37 0 63 6.5t50 29t50.5 66.5t65.5 116q127 -62 194.5 -159t67.5 -236q0 -167 -100.5 -251t-296.5 -84q-101 0 -191 46t-165.5 122t-136 175t-103 205t-65 211t-22.5 196l142 27q0 -85 21 -180.5t58 -188.5t89 -178t114.5 -150.5
t133.5 -104t147 -38.5q235 0 235 201q0 123 -75 197q-52 -81 -115.5 -125.5t-136.5 -44.5q-59 0 -106.5 21t-82 58.5t-52.5 88.5t-18 110q0 105 37 217.5t111 226.5h-569v142zM1896 227q-19 46 -64.5 100t-106 108.5t-131.5 106.5t-142 94t-136.5 69.5t-113.5 32.5l-56 135
q42 5 92 17t101.5 31t100 45t85.5 59t60 73t23 86q0 73 -74 143q-31 -62 -61.5 -110t-67.5 -81t-85.5 -52t-114.5 -23q-49 0 -92 15t-75.5 41t-51.5 63.5t-19 83.5q0 99 61 171l110 -63q-20 -30 -24.5 -56.5t-4.5 -41.5q0 -6 6 -17.5t18 -24t31 -21t45 -8.5q31 0 58 9.5
t56.5 42.5t65.5 95.5t84 169.5q49 -20 98 -57t89 -85t65 -103t25 -109q0 -64 -31 -123.5t-79.5 -108t-109.5 -82t-120 -45.5q110 -42 230.5 -128t255.5 -217v1309h141v-228h233v-142h-233v-1401h-141v227z" />
    <glyph glyph-name="bn_ng_ga" horiz-adv-x="1303" 
d="M941 1401h-218q38 -56 80.5 -86.5t93.5 -30.5q10 0 20.5 5.5t19.5 14.5t14.5 21t5.5 24q-1 24 -8 39q-4 8 -8 13zM650 929q0 43 -18.5 86t-51.5 77t-78 56t-98 23q-26 0 -55.5 -6.5t-54 -19.5t-41 -32t-16.5 -43q0 -11 2.5 -23.5t9 -25t18.5 -23t30 -16.5q29 -10 52 7
t33 44l64 -85q-12 -16 -26.5 -31.5t-32 -28t-37.5 -20.5t-43 -8q-36 0 -70 18.5t-60.5 48t-42 66.5t-15.5 74q0 43 18.5 81.5t50 67.5t72.5 48t86 24q-12 42 -61 113h-351v142h1420v-142h-295q8 -8 11.5 -19.5t2.5 -22.5q-2 -35 -14 -66t-32.5 -54t-48.5 -37t-60 -14
q-94 0 -174 53.5t-152 159.5h-153q-2 -18 2 -34q1 -9 3 -16q2 -21 9.5 -35t13.5 -28q58 -6 110 -34.5t92.5 -73.5t66.5 -102.5t32 -122.5q85 90 180.5 157t201.5 121l177 -139q-59 -74 -110.5 -154.5t-86.5 -161.5q-17 -40 -30 -74.5t-22.5 -67t-15.5 -65.5t-9 -70
q-10 -104 18.5 -226.5t88.5 -242.5l-126 -57q-33 87 -56.5 161t-37.5 139t-20.5 123t-6.5 114q0 51 9.5 104.5t29.5 115.5q10 30 23 63.5t29 68.5q16 37 45 85t71 102q-45 -28 -79 -50t-62 -48q-32 -30 -60.5 -56.5t-56.5 -54.5q-27 -28 -53.5 -58.5t-51.5 -61t-49 -59
t-45 -52.5q-44 -50 -83 -84.5t-74 -55.5t-66 -30.5t-58 -9.5q-39 0 -72.5 11.5t-62.5 41.5t-52.5 82.5t-41.5 134.5l128 46l23 -99q11 -38 31.5 -54t40.5 -16q47 13 89.5 44.5t78 70.5t62.5 79.5t44 71.5v85z" />
    <glyph glyph-name="bn_ng_gha" horiz-adv-x="2135" 
d="M867 1424q-54 -2 -107 -28t-106 -82q35 -32 77.5 -50.5t88.5 -18.5q24 0 52.5 7.5t51.5 21t38.5 30t15.5 37.5q0 83 -111 83zM-26 1543h888q66 0 114.5 -9.5t80.5 -32.5t47.5 -62t15.5 -98q0 -49 -22.5 -92t-61 -75.5t-90.5 -51.5t-110 -19q-65 0 -127.5 29t-126.5 68
q-49 -136 -49 -221q0 -158 97 -158q37 0 63 6.5t50 29t50.5 66.5t65.5 116q127 -62 194.5 -159t67.5 -236q0 -167 -100.5 -251t-296.5 -84q-101 0 -191 46t-165.5 122t-136 175t-103 205t-65 211t-22.5 196l142 27q0 -85 21 -180.5t58 -188.5t89 -178t114.5 -150.5
t133.5 -104t147 -38.5q235 0 235 201q0 123 -75 197q-52 -81 -115.5 -125.5t-136.5 -44.5q-59 0 -106.5 21t-82 58.5t-52.5 88.5t-18 110q0 105 37 217.5t111 226.5h-569v142zM1105 752l216 227q-13 -3 -25.5 -4.5t-24.5 -1.5q-60 0 -114.5 22.5t-97 60t-67.5 87.5t-25 107
q0 38 11.5 75.5t38.5 75.5h-219v142h1354v-142h-217v-1401h-142v180q-39 90 -104.5 167t-150.5 136.5t-184.5 100t-204.5 57.5zM1179 1401q-39 -35 -54.5 -68t-15.5 -64q0 -38 22 -66.5t57 -48t80.5 -29.5t91.5 -10q59 0 102.5 18.5t90.5 69.5l90 -100q-85 -81 -174 -168
t-182 -183q93 -35 160 -63.5t121.5 -63.5t107 -82.5t117.5 -117.5v976h-614z" />
    <glyph glyph-name="bn_ng_gh_ra" horiz-adv-x="2134" 
d="M1478 26q-17 0 -49.5 -7.5t-77.5 -16t-127 -10.5q-111 0 -196.5 29t-143.5 81t-88.5 123.5t-30.5 156.5q0 54 12.5 113.5t39.5 121.5l127 -33q-39 -122 -39 -172q0 -76 20.5 -128.5t66 -86t120 -48.5t177.5 -12q26 3 54.5 8t55 11t51.5 9t49 3q81 0 154 -33t140 -85v628
h142v-960h-142v147q-28 33 -66.5 62t-81 51t-86.5 35t-81 13zM867 1424q-54 -2 -107 -28t-106 -82q35 -32 77.5 -50.5t88.5 -18.5q24 0 52.5 7.5t51.5 21t38.5 30t15.5 37.5q0 83 -111 83zM-26 1543h888q66 0 114.5 -9.5t80.5 -32.5t47.5 -62t15.5 -98q0 -49 -22.5 -92
t-61 -75.5t-90.5 -51.5t-110 -19q-65 0 -127.5 29t-126.5 68q-49 -136 -49 -221q0 -158 97 -158q37 0 63 6.5t50 29t50.5 66.5t65.5 116q127 -62 194.5 -159t67.5 -236q0 -167 -100.5 -251t-296.5 -84q-101 0 -191 46t-165.5 122t-136 175t-103 205t-65 211t-22.5 196
l142 27q0 -85 21 -180.5t58 -188.5t89 -178t114.5 -150.5t133.5 -104t147 -38.5q235 0 235 201q0 123 -75 197q-52 -81 -115.5 -125.5t-136.5 -44.5q-59 0 -106.5 21t-82 58.5t-52.5 88.5t-18 110q0 105 37 217.5t111 226.5h-569v142zM1105 752l216 227q-13 -3 -25.5 -4.5
t-24.5 -1.5q-60 0 -114.5 22.5t-97 60t-67.5 87.5t-25 107q0 38 11.5 75.5t38.5 75.5h-219v142h1354v-142h-217v-1401h-142v180q-39 90 -104.5 167t-150.5 136.5t-184.5 100t-204.5 57.5zM1179 1401q-39 -35 -54.5 -68t-15.5 -64q0 -38 22 -66.5t57 -48t80.5 -29.5t91.5 -10
q59 0 102.5 18.5t90.5 69.5l90 -100q-85 -81 -174 -168t-182 -183q93 -35 160 -63.5t121.5 -63.5t107 -82.5t117.5 -117.5v976h-614z" />
    <glyph glyph-name="bn_ng_ma" horiz-adv-x="2146" 
d="M867 1424q-54 -2 -107 -28t-106 -82q35 -32 77.5 -50.5t88.5 -18.5q24 0 52.5 7.5t51.5 21t38.5 30t15.5 37.5q0 83 -111 83zM-26 1543h888q66 0 114.5 -9.5t80.5 -32.5t47.5 -62t15.5 -98q0 -49 -22.5 -92t-61 -75.5t-90.5 -51.5t-110 -19q-65 0 -127.5 29t-126.5 68
q-49 -136 -49 -221q0 -158 97 -158q37 0 63 6.5t50 29t50.5 66.5t65.5 116q127 -62 194.5 -159t67.5 -236q0 -167 -100.5 -251t-296.5 -84q-101 0 -191 46t-165.5 122t-136 175t-103 205t-65 211t-22.5 196l142 27q0 -85 21 -180.5t58 -188.5t89 -178t114.5 -150.5
t133.5 -104t147 -38.5q235 0 235 201q0 123 -75 197q-52 -81 -115.5 -125.5t-136.5 -44.5q-59 0 -106.5 21t-82 58.5t-52.5 88.5t-18 110q0 105 37 217.5t111 226.5h-569v142zM1519 1050q81 -27 152.5 -94.5t132.5 -172.5v618h-652q80 -27 137 -56.5t100 -70t74 -95
t56 -129.5zM1946 1401v-1401h-142v478q0 28 -17.5 72t-47 93.5t-67.5 98.5t-78.5 89t-79.5 65t-72 25q-148 0 -234 -78.5t-86 -225.5q0 -220 234 -266l-63 -121h-11q-61 0 -115 38t-96 95t-66 123t-24 123q0 378 383 455q-18 48 -43.5 82.5t-72.5 61.5t-122 50.5t-190 49.5
v93h-182v142h1398v-142h-206z" />
    <glyph glyph-name="bn_ng_ma1" horiz-adv-x="1709" 
d="M-6 1543h1722v-142h-205v-1805h-140v164q0 23 -26.5 64t-87.5 102q-48 48 -84 76.5t-65 43.5t-56 19t-58 4q-12 0 -27 -6t-27.5 -15.5t-21.5 -22.5t-9 -25q0 -68 108 -89l-47 -109q-45 0 -82.5 14.5t-64.5 42.5t-42.5 65t-15.5 81q0 45 21.5 81t56.5 60.5t81.5 38
t95.5 13.5q-38 69 -73 117q-10 13 -19 25q-85 -31 -204 -31q-101 0 -191 46t-165.5 122t-136 175t-103 205t-65 211t-22.5 196l141 27q0 -85 20.5 -180.5t58.5 -188.5t90 -178t114.5 -150.5t133.5 -104t147 -38.5q235 0 235 201q0 123 -75 197q-52 -81 -115.5 -125
t-136.5 -44q-59 0 -106.5 21t-82 58t-52.5 88t-18 110q0 105 37 217.5t111 226.5h-549v142zM1371 1401h-261q8 -28 8 -60q0 -49 -22 -92t-60.5 -75.5t-90 -51.5t-109.5 -19q-65 0 -127.5 29t-126.5 68q-49 -136 -49 -221q0 -158 97 -158q37 0 63 6.5t50 29t50.5 66.5
t65.5 116q127 -62 194.5 -159t67.5 -236q0 -152 -84 -236q28 -32 50 -67q49 -74 76 -161q12 -7 43 -30.5t65.5 -52t63.5 -55t36 -37.5v1396zM867 1424q-54 -2 -107 -28t-106 -82q35 -32 77.5 -50.5t88.5 -18.5q24 0 52.5 7.5t51.5 21t38.5 30t15.5 37.5q0 83 -111 83z" />
    <glyph glyph-name="bn_c_ca" horiz-adv-x="1827" 
d="M-69 1543h845v-142h-430v-87q44 -76 114.5 -145t154.5 -120t176.5 -81.5t181.5 -30.5q11 -23 17 -48.5t6 -56.5q0 -77 -25 -157t-68.5 -155.5t-103 -141.5t-128 -116t-142.5 -79t-147 -29q-89 50 -133.5 104t-44.5 135v1008h-273v142zM404 296q47 0 99 23t102 62t95 91
t79.5 108.5t55 116t20.5 113.5q-312 50 -509 306v-720q0 -50 13.5 -75t44.5 -25zM999 1233q50 -65 87 -106.5t76.5 -67t91.5 -39.5t133 -25q73 -11 123.5 -23t77.5 -27q43 -27 76 -73t33 -115q0 -109 -71.5 -231t-198.5 -257q-123 -131 -234 -197.5t-207 -66.5h-6
q-39 23 -69.5 49.5t-53.5 53.5v1293h-272v142h1271v-142h-857v-168zM999 147q65 0 146 58t192 177q218 235 218 370q0 61 -100 92q-56 13 -121 28t-126.5 36t-116 50.5t-92.5 75.5v-887z" />
    <glyph glyph-name="bn_c_cha" horiz-adv-x="1965" 
d="M-69 1543h845v-142h-430v-87q44 -76 114.5 -145t154.5 -120t176.5 -81.5t181.5 -30.5q11 -23 17 -48.5t6 -56.5q0 -77 -25 -157t-68.5 -155.5t-103 -141.5t-128 -116t-142.5 -79t-147 -29q-89 50 -133.5 104t-44.5 135v1008h-273v142zM404 296q47 0 99 23t102 62t95 91
t79.5 108.5t55 116t20.5 113.5q-312 50 -509 306v-720q0 -50 13.5 -75t44.5 -25zM994 796q19 -31 36.5 -47t43.5 -16q39 0 85 29.5t86 73t67 91.5t27 86q0 44 -45 48h-77q-138 0 -223 105v-370zM1410 340q84 -31 144.5 -58.5t110 -56t91.5 -59.5t87 -70t99 -89t127 -115
l-95 -100q-87 101 -206 192.5t-254 159t-276.5 107t-291.5 39.5v142h197q112 0 214.5 33t181.5 87.5t126.5 125.5t47.5 145q0 45 -7.5 76t-27 53.5t-53 37t-84.5 27.5l-58 8q-8 -80 -46 -157t-94.5 -139t-128 -100t-145.5 -38q-40 0 -78.5 17t-68.5 44t-49.5 61t-19.5 67
v621h-211v142h1346v-142h-994v-58q35 -56 73.5 -91.5t86.5 -54.5q29 -2 74.5 -9t95.5 -15t99 -14t87 -6q12 0 24 1.5t21 3.5q62 0 116.5 -29t95 -79t64 -116t23.5 -140q0 -69 -35 -137t-95.5 -128.5t-141.5 -109.5t-172 -79z" />
    <glyph glyph-name="bn_c_ch_ba" horiz-adv-x="1972" 
d="M-69 1543h845v-142h-430v-87q44 -76 114.5 -145t154.5 -120t176.5 -81.5t181.5 -30.5q11 -23 17 -48.5t6 -56.5q0 -77 -25 -157t-68.5 -155.5t-103 -141.5t-128 -116t-142.5 -79t-147 -29q-89 50 -133.5 104t-44.5 135v1008h-273v142zM404 296q47 0 99 23t102 62t95 91
t79.5 108.5t55 116t20.5 113.5q-312 50 -509 306v-720q0 -50 13.5 -75t44.5 -25zM994 796q19 -31 36.5 -47t43.5 -16q39 0 85 29.5t86 73t67 91.5t27 86q0 44 -45 48h-77q-138 0 -223 105v-370zM1410 340q84 -31 144.5 -58.5t110 -56t91.5 -59.5t87 -70t99 -89t127 -115
l-95 -100q-87 101 -206 192.5t-254 159t-276.5 107t-291.5 39.5v142h197q112 0 214.5 33t181.5 87.5t126.5 125.5t47.5 145q0 45 -7.5 76t-27 53.5t-53 37t-84.5 27.5l-58 8q-8 -80 -46 -157t-94.5 -139t-128 -100t-145.5 -38q-40 0 -78.5 17t-68.5 44t-49.5 61t-19.5 67
v621h-211v142h1346v-142h-994v-58q35 -56 73.5 -91.5t86.5 -54.5q29 -2 74.5 -9t95.5 -15t99 -14t87 -6q12 0 24 1.5t21 3.5q62 0 116.5 -29t95 -79t64 -116t23.5 -140q0 -69 -35 -137t-95.5 -128.5t-141.5 -109.5t-172 -79zM1613 -709v126q-37 70 -79 120t-92.5 81
t-113.5 46t-142 15l-61 131q211 215 489 348h141v-867h-142zM1613 3q-95 -43 -170.5 -93.5t-132.5 -107.5q185 -39 303 -174v375z" />
    <glyph glyph-name="bn_c_ch_ra" horiz-adv-x="1979" 
d="M1432 -246q-16 0 -51 -5.5t-75 -12.5t-76.5 -12.5t-52.5 -5.5q-111 0 -196.5 29.5t-143.5 81.5t-88.5 124.5t-30.5 157.5q0 54 14.5 113t38.5 122l128 -37q-39 -121 -39 -171q0 -75 20 -127.5t66 -85.5t120.5 -48t180.5 -15q22 0 48.5 5t53.5 11t54 11.5t51 5.5
q81 0 154 -34t139 -85v251h144v-583h-144v150q-28 31 -66 60t-80.5 51t-86.5 35.5t-82 13.5zM-69 1543h845v-142h-430v-87q44 -76 114.5 -145t154.5 -120t176.5 -81.5t181.5 -30.5q11 -23 17 -48.5t6 -56.5q0 -77 -25 -157t-68.5 -155.5t-103 -141.5t-128 -116t-142.5 -79
t-147 -29q-89 50 -133.5 104t-44.5 135v1008h-273v142zM404 296q47 0 99 23t102 62t95 91t79.5 108.5t55 116t20.5 113.5q-312 50 -509 306v-720q0 -50 13.5 -75t44.5 -25zM994 796q19 -31 36.5 -47t43.5 -16q39 0 85 29.5t86 73t67 91.5t27 86q0 44 -45 48h-77
q-138 0 -223 105v-370zM1410 340q84 -31 144.5 -58.5t110 -56t91.5 -59.5t87 -70t99 -89t127 -115l-95 -100q-87 101 -206 192.5t-254 159t-276.5 107t-291.5 39.5v142h197q112 0 214.5 33t181.5 87.5t126.5 125.5t47.5 145q0 45 -7.5 76t-27 53.5t-53 37t-84.5 27.5l-58 8
q-8 -80 -46 -157t-94.5 -139t-128 -100t-145.5 -38q-40 0 -78.5 17t-68.5 44t-49.5 61t-19.5 67v621h-211v142h1346v-142h-994v-58q35 -56 73.5 -91.5t86.5 -54.5q29 -2 74.5 -9t95.5 -15t99 -14t87 -6q12 0 24 1.5t21 3.5q62 0 116.5 -29t95 -79t64 -116t23.5 -140
q0 -69 -35 -137t-95.5 -128.5t-141.5 -109.5t-172 -79z" />
    <glyph glyph-name="bn_c_nya" horiz-adv-x="2281" 
d="M288 1322q36 -46 61.5 -75t54 -47.5t65.5 -28t95 -17.5q86 -12 126 -30q24 44 57 89q46 63 104 122.5t120 105t122 74t109 28.5q73 0 121.5 -17.5t77.5 -67t42 -137t13 -226.5q84 82 140.5 133.5t101 80.5t84.5 39t91 10q61 0 114 -23.5t92.5 -64t61.5 -94.5t22 -115
q0 -146 -121 -248q65 -72 99 -140t34 -137q0 -143 -72.5 -214t-211.5 -71q-56 0 -118.5 25t-122 64t-111 86.5t-83.5 93.5v-554h-141q0 114 -25.5 186t-76.5 111q-27 20 -79.5 32.5t-119.5 18t-142 6.5t-147 1h-198q-139 6 -227 50.5t-154 145.5v884h-196v142h949v-142h-611
v-79zM460 478q79 -16 170 -16q19 0 71.5 0.5t115 2t123 2t93.5 0.5q161 0 282 -97v938q0 14 -6.5 30t-17.5 30t-24.5 23.5t-26.5 9.5q-24 0 -47 -2t-44 -9q-25 -6 -62.5 -31t-77 -60t-80 -77.5t-72.5 -84.5t-51.5 -80.5t-19.5 -64.5q0 -27 12.5 -49t43.5 -22q63 0 94 44
l95 -100q-98 -89 -189 -89q-44 0 -80 16q-16 8 -31 18q-51 -84 -137 -177q-94 -98 -177 -144q21 -6 43 -11zM1456 694q38 -43 92 -96t114.5 -98.5t123.5 -76t115 -30.5q76 0 104.5 32.5t28.5 113.5q0 54 -21 94.5t-55.5 66.5t-77.5 39t-87 13q-31 0 -59 -2t-51 -9v141
q25 -7 50 -8t52 -1q46 0 88.5 11t75.5 34.5t53.5 59t20.5 83.5q0 30 -12 58t-34 50t-49.5 34.5t-57.5 12.5q-146 0 -414 -332v-190zM288 589q45 0 102.5 40.5t137.5 125.5q39 41 62 72.5t35 57t15.5 47.5t3.5 47q0 47 -72 63q-40 12 -80 16t-76.5 11t-68.5 22t-59 48v-550z
" />
    <glyph glyph-name="bn_c_na" horiz-adv-x="1211" 
d="M340 1233q50 -65 87 -106.5t76.5 -67t91.5 -39.5t133 -25q73 -11 123.5 -23t77.5 -27q43 -27 75.5 -73t32.5 -115q0 -109 -71 -231t-198 -257q-123 -131 -234 -197.5t-207 -66.5h-6q-39 23 -69.5 49.5t-53.5 53.5v1293h-272v142h1301v-142h-887v-168zM340 147
q65 0 146 58t192 177q218 235 218 370q0 61 -100 92q-56 13 -121 28t-126.5 36t-116 50.5t-92.5 75.5v-887zM868 -718q-97 218 -220.5 325.5t-257.5 107.5q-150 0 -150 -152q0 -71 111 -107l-45 -131q-101 35 -153.5 104t-52.5 170q0 51 25.5 97.5t67 82.5t92.5 57t102 21
q63 0 119 -15.5t112.5 -52.5t117 -98.5t132.5 -152.5v1095h145v-1554h-145v203z" />
    <glyph glyph-name="bn_j_ja" horiz-adv-x="2211" 
d="M766 1401q23 -93 124 -144t282 -51q46 0 89 15.5t91 50.5q178 -224 475 -224q38 0 75.5 8.5t76.5 27.5l152 -169q-61 -59 -100 -116.5t-63 -116t-32.5 -119.5t-8.5 -126q0 -97 11.5 -203.5t22.5 -236.5l-140 -16q-12 126 -25.5 232t-13.5 207q0 58 7 116t22.5 117.5
t42.5 121.5t67 130q-23 -7 -51 -11t-59 -4q-67 0 -122 8t-108 29t-108 58t-121 94q-153 -112 -153 -203q0 -119 100 -119q61 0 221 111q177 -86 177 -335q0 -69 -24 -127.5t-66.5 -101t-101.5 -67t-129 -24.5q-139 0 -256.5 74.5t-210.5 226.5q-15 -28 -44.5 -54.5t-66 -45
t-76 -30t-75.5 -11.5q-80 0 -157 28t-143.5 82t-120 133t-85.5 180q-23 73 -47.5 201t-47.5 314l142 21q16 -164 29 -256.5t18 -112.5q22 -102 61 -177.5t88.5 -126t107.5 -75.5t118 -25q211 0 211 212q0 74 -53 119q-50 -48 -101.5 -71t-103.5 -23q-51 0 -96.5 24t-79.5 65
t-54.5 97.5t-20.5 123.5q0 27 17 70.5t42 88t54 83t53 53.5h-520v142h2295v-142h-1487zM1560 544q0 43 -12.5 79t-35.5 65q-51 -29 -80 -46.5t-46.5 -26.5t-29 -11t-29.5 -2q-27 0 -52.5 4t-53 15t-57.5 30.5t-66 50.5q-27 50 -40 104t-13 112q0 7 15 42t46 101
q-173 0 -295 64t-198 202q-47 -53 -75.5 -87t-42.5 -62t-18 -53t-4 -57q0 -87 98 -87q69 0 222 87q38 -14 73 -53t61 -93.5t41.5 -118t15.5 -125.5q52 -88 96.5 -146t88.5 -92t91 -47.5t105 -13.5q41 0 76 11.5t61 33.5t42 52t16 68z" />
    <glyph glyph-name="bn_j_j_ba" horiz-adv-x="2210" 
d="M766 1401q23 -93 124 -144t282 -51q46 0 89 15.5t91 50.5q178 -224 475 -224q38 0 75.5 8.5t76.5 27.5l152 -169q-61 -59 -100 -116.5t-63 -116t-32.5 -119.5t-8.5 -126q0 -97 11.5 -203.5t22.5 -236.5l-140 -16q-12 126 -25.5 232t-13.5 207q0 58 7 116t22.5 117.5
t42.5 121.5t67 130q-23 -7 -51 -11t-59 -4q-67 0 -122 8t-108 29t-108 58t-121 94q-153 -112 -153 -203q0 -119 100 -119q61 0 221 111q177 -86 177 -335q0 -69 -24 -127.5t-66.5 -101t-101.5 -67t-129 -24.5q-139 0 -256.5 74.5t-210.5 226.5q-15 -28 -44.5 -54.5t-66 -45
t-76 -30t-75.5 -11.5q-80 0 -157 28t-143.5 82t-120 133t-85.5 180q-23 73 -47.5 201t-47.5 314l142 21q16 -164 29 -256.5t18 -112.5q22 -102 61 -177.5t88.5 -126t107.5 -75.5t118 -25q211 0 211 212q0 74 -53 119q-50 -48 -101.5 -71t-103.5 -23q-51 0 -96.5 24t-79.5 65
t-54.5 97.5t-20.5 123.5q0 27 17 70.5t42 88t54 83t53 53.5h-520v142h2295v-142h-1487zM1560 544q0 43 -12.5 79t-35.5 65q-51 -29 -80 -46.5t-46.5 -26.5t-29 -11t-29.5 -2q-27 0 -52.5 4t-53 15t-57.5 30.5t-66 50.5q-27 50 -40 104t-13 112q0 7 15 42t46 101
q-173 0 -295 64t-198 202q-47 -53 -75.5 -87t-42.5 -62t-18 -53t-4 -57q0 -87 98 -87q69 0 222 87q38 -14 73 -53t61 -93.5t41.5 -118t15.5 -125.5q52 -88 96.5 -146t88.5 -92t91 -47.5t105 -13.5q41 0 76 11.5t61 33.5t42 52t16 68zM1815 -638v126q-37 70 -79 120t-92.5 81
t-113.5 46t-142 15l-61 131q211 215 489 348h141v-867h-142zM1815 74q-95 -43 -170.5 -93.5t-132.5 -107.5q185 -39 303 -174v375z" />
    <glyph glyph-name="bn_j_jha" horiz-adv-x="1716" 
d="M950 285q-81 -42 -159 -88t-153 -97q74 -31 149.5 -88t156.5 -115zM1224 -406v210q-58 151 -141 151v-467h-133q0 12 1 33t1 48q0 89 -39 156.5t-102 118.5t-140.5 86t-154.5 59l-136 154q57 23 121.5 62t141.5 96q-136 20 -241.5 92.5t-178.5 193t-112 286.5t-40 374
h135q21 -804 506 -804q55 0 103 13.5t84 41t56 68t20 94.5q0 114 -78 184q-59 -39 -96.5 -61.5t-67 -33.5t-60.5 -13.5t-77 -2.5q-53 0 -98 24.5t-79 65t-53 91.5t-19 104q0 55 10.5 101t36.5 90t72 90t116 102h-635v142h1818v-142h-932q6 -51 42.5 -93.5t92 -73t125 -48
t141.5 -17.5q180 0 222 15l135 -155q-84 -80 -104 -108q-27 -33 -46 -74.5t-33 -86.5t-23 -88t-14.5 -79.5t-7.5 -62t-2 -35.5v-901h-137zM1274 1018q-396 0 -573 309q-66 -61 -106.5 -103.5t-62 -76t-29 -64.5t-7.5 -70q0 -49 17.5 -75.5t40.5 -40t46 -16t35 -2.5h8
q42 0 98 35.5t124 85.5l41 31q46 -25 85.5 -69t66.5 -96.5t42.5 -110.5t15.5 -114q0 -67 -30 -124v-404q84 -28 127 -108v409q0 191 37 342t111 270z" />
    <glyph glyph-name="bn_j_nya" horiz-adv-x="1858" 
d="M707 1308q-187 -147 -187 -329q0 -174 150 -174q24 0 54.5 10t62 27.5t60 39t47.5 44.5q-65 85 -112.5 180t-74.5 202zM1382 818q11 -3 22 -3h23q53 0 96.5 11t74.5 30t49 46t18 58q0 26 -15 50t-38.5 42.5t-52.5 29t-58 10.5q-183 0 -406 -279q9 -88 47 -165.5
t93.5 -137t125 -94t143.5 -34.5q150 0 150 146q0 160 -177 160q-39 0 -89 -8zM1683 747q108 -72 108 -219q0 -296 -304 -298q-140 9 -210.5 61t-116 97t-76.5 93q-19 -52 -59.5 -95t-93.5 -75t-114 -50t-120 -18q-72 0 -149.5 35t-149 96t-133 142.5t-99.5 174.5
q-94 186 -124 523l132 28q25 -181 63.5 -325t105 -260.5t166.5 -188.5t216 -72q53 0 100 23.5t83.5 62t57.5 87.5t21 101q0 60 -30 126q-166 -129 -300 -129q-278 0 -278 348q0 46 19.5 103.5t50 112t68.5 100.5t74 70h-731v142h2061v-142h-1069l-8 -50q0 -47 17 -102.5
t44.5 -107.5t64.5 -96.5t78 -71.5q213 266 442 266q61 0 116.5 -23.5t98 -64t67.5 -94t25 -112.5q0 -149 -114 -198z" />
    <glyph glyph-name="bn_ny_ca" horiz-adv-x="1829" 
d="M868 1056q-158 -100 -285.5 -182.5t-226.5 -148.5q126 -43 253.5 -124t258.5 -203v658zM1451 501q34 0 65.5 12.5t54.5 35.5t37.5 53t14.5 65q0 80 -80 159q-53 -43 -132 -43q-89 0 -142 35l23 119q47 -22 90 -22q46 0 88.5 26.5t75 67.5t52 89.5t19.5 93.5
q0 28 -12 54.5t-32 47t-46.5 32.5t-54.5 12q-101 18 -238 -130l-191 -229q15 -62 58 -141.5t99 -163.5t121 -128.5t130 -44.5zM1463 354q-140 0 -255.5 103t-212.5 308v-765h-127v205q-101 97 -169.5 156t-100.5 82q-39 27 -121.5 62t-205.5 81l-110 177q105 69 263 169.5
t373 231.5q-95 218 -316 218q-195 0 -278 -147l-13 -79q0 -11 10.5 -20.5t26 -17.5t34.5 -13t37 -5l-35 -121q-15 -3 -25 -3h-17q-33 0 -62 19t-51 50t-34.5 70t-12.5 80q0 65 32.5 121.5t85.5 98.5t124 65.5t148 23.5q78 0 139 -13t111.5 -41t93 -74t84.5 -112v409h123
v-512q82 97 130 152t63 69q129 122 254 122q62 0 117 -22.5t97 -61t66.5 -91t24.5 -113.5q0 -195 -103 -298q105 -89 105 -277q0 -55 -25 -106.5t-66.5 -92t-94.5 -64.5t-107 -24z" />
    <glyph glyph-name="bn_ny_cha" horiz-adv-x="1553" 
d="M553 882q-66 -25 -122.5 -48t-98 -46.5t-65 -49t-23.5 -58.5q0 -40 21 -69t52.5 -48.5t69 -28.5t70.5 -9q112 0 243 116q-33 31 -61.5 93t-51.5 160zM1065 1145q19 -3 31 -3h16q37 0 70.5 21t58.5 53.5t40.5 70t15.5 71.5q0 50 -33 81.5t-80 31.5q-77 0 -160 -74.5
t-178 -227.5q130 -370 354 -370q117 0 117 111q0 80 -83 119q-34 -19 -92 -19q-80 0 -112 24zM772 92q165 -88 339.5 -210t359.5 -283l-79 -108q-165 135 -283 223t-193 133q-287 175 -559 175l-110 191q65 -11 129.5 -15.5t129.5 -4.5q45 0 94.5 8t99 23t94.5 34.5t79.5 44
t55 51.5t20.5 55q0 12 -11.5 36.5t-28.5 48.5t-36 41.5t-32 17.5q-16 0 -25 -9q-86 -159 -409 -159q-52 0 -105.5 22t-95.5 60t-68 86.5t-26 101.5q0 171 148 258q75 32 150.5 63.5t136 73t99 96t38.5 134.5q0 42 -17.5 78.5t-46.5 62.5t-68 41t-81 15t-88 -19t-85 -50
t-64.5 -71t-25.5 -82q0 -81 91 -97l-58 -119q-166 54 -166 203q0 81 36 148t97.5 114.5t145 73.5t180.5 26q46 0 89.5 -22.5t79 -59.5t62 -84.5t38.5 -96.5q63 86 108.5 137.5t86.5 78.5t86.5 35.5t107.5 8.5q54 0 98 -21t75 -57.5t47.5 -85t16.5 -102.5q0 -125 -93 -219
q111 -60 111 -234q0 -48 -19 -87.5t-51.5 -70t-75.5 -47.5t-92 -17q-299 0 -437 416q-12 -46 -82 -97q36 -208 116 -272q51 0 101 -28t89 -72.5t63.5 -99.5t24.5 -106q0 -105 -77.5 -183.5t-234.5 -125.5z" />
    <glyph glyph-name="bn_ny_ja" horiz-adv-x="1597" 
d="M1291 1016q-42 -19 -94 -19t-94 25l34 125q24 -2 35 -4q7 -1 12 -1q36 0 68 13t56 27t38.5 44.5t14.5 66.5q0 97 -116 97q-141 11 -249 -81.5t-141 -169.5q37 -106 109.5 -190.5t144 -103.5t133.5 -19q116 0 116 84q0 58 -67 106zM572 675q8 -61 45 -61q88 0 204 114
q47 -18 87 -55t68 -86.5t44.5 -107.5t16.5 -117q0 -76 -30 -140.5t-79.5 -112.5t-116 -76t-139.5 -28q-109 0 -203.5 52t-169 142.5t-125.5 213.5t-83 296l-19 143l130 3q11 -142 53 -270.5t105.5 -227t144.5 -156.5t173 -58q46 0 86.5 19t70.5 51.5t47 76t17 92.5
q0 91 -61 151q-87 -71 -210 -71q-230 21 -203 263q61 210 172 362q64 106 73.5 132.5t9.5 52.5l-8 42q-37 87 -150 99q-43 0 -87.5 -20t-81.5 -53t-60.5 -75.5t-23.5 -87.5q0 -40 40 -66l-66 -108q-105 39 -105 166q0 76 33 144.5t87 120.5t123 83t141 31q200 0 265 -147
q23 -40 23 -90q53 58 103.5 98t104.5 69.5t115 40.5t137 11q49 0 91 -22.5t74 -53t50.5 -73t18.5 -90.5q0 -52 -23 -102.5t-72 -101.5q98 -56 98 -182q0 -80 -91 -167q20 -27 37 -43.5t32 -27.5q-200 -130 -200 -390q0 -147 87 -324l-119 -58q-25 50 -36 72.5t-43 109.5
q-43 129 -32 258q37 253 138 351q-23 -3 -39 -3h-22q-267 -11 -470 359q-85 -119 -129 -210.5t-48 -156.5z" />
    <glyph glyph-name="bn_ny_jha" horiz-adv-x="2206" 
d="M2071 1068q0 -157 -116 -273q132 -85 132 -256q0 -56 -17.5 -104t-50 -83.5t-77.5 -56.5t-101 -21q-90 0 -208 41v-798l-151 4q11 120 -27.5 208.5t-105.5 148.5v-450h-157v193q-89 127 -196.5 196.5t-230.5 79.5l-132 158q120 73 231.5 131t288.5 120q-181 79 -314 72
q-55 0 -94 -3.5t-83.5 -11t-86.5 -14t-63 -6.5q-96 0 -173.5 42t-132.5 114t-84.5 170t-29.5 210q0 40 4.5 74.5t13 73t24 74.5t39.5 75l139 -65q-62 -133 -66 -223q14 -137 33 -186.5t48.5 -91t83.5 -80.5t172 -35l171 32q155 6 202 -2t93.5 -21t85.5 -28.5t60 -29.5v889
q-2 8 -8.5 19.5t-17.5 21t-24.5 16.5t-25.5 7h-5q-42 0 -90.5 -22.5t-96 -59t-91.5 -83.5t-77 -98t-53 -101.5t-20 -92.5q0 -2 1 -8q1 -8 4 -27l24 -28l-103 -108q-73 73 -73 221q0 56 28 118.5t75.5 123.5t108 116t125 97.5t127.5 67.5t116 25q131 0 230 -177v-282
q82 89 136.5 144.5t102 88t92.5 45.5t98 13q63 0 116.5 -24t92.5 -65.5t61.5 -97t22.5 -117.5zM1955 567q0 59 -80 124q-89 72 -226 79v137q54 0 108 -11t93 -25q94 94 94 197q0 32 -13 60.5t-34.5 49.5t-50 33.5t-60.5 12.5q-157 0 -437 -378v-118q274 -319 479 -319
q30 0 53.5 13t39.5 34t25 50t9 61zM1482 392l-133 142v-119v-408q77 -23 133 -112v497zM1195 190q-120 -58 -196.5 -94.5t-152.5 -71.5q219 -13 349 -220v386z" />
    <glyph glyph-name="bn_tt_tta" horiz-adv-x="1283" 
d="M1086 420q0 -77 -36 -142t-94 -112t-133 -73.5t-151 -26.5q-194 0 -353 150.5t-290 461.5l128 55q211 -525 523 -525q50 0 97 15.5t84 43t60 63.5t23 76q0 111 -71 150q-149 -116 -277 -116q-131 0 -198 77t-67 208v676h-360v142h1058q-1 47 2 55q-11 156 -256 164
l-419 -29q-72 0 -134 21t-108.5 59.5t-73.5 94.5t-27 126q0 44 23 92.5t69 105.5l116 -81q-13 -11 -24 -30.5t-20.5 -41.5t-16 -42.5t-6.5 -34.5q0 -131 268 -131l426 31q69 0 129 -25.5t104.5 -71t69.5 -106t25 -129.5l-2 -27h131v-142h-833v-668q0 -57 10.5 -87t26 -45
t32 -18t28.5 -3q77 0 148 41.5t126 108t88.5 151t33.5 169.5q0 124 -84 124q-37 0 -111 -48l-74 98q116 92 202 92q49 0 87.5 -25.5t65 -69.5t40.5 -102.5t14 -123.5q0 -32 -10 -77.5t-27 -92.5t-38 -90.5t-41 -70.5q46 -57 71.5 -118t25.5 -126z" />
    <glyph glyph-name="bn_tt_tt_ra" horiz-adv-x="1314" 
d="M1106 420q0 -77 -36 -142t-94 -112t-133 -73.5t-151 -26.5q-194 0 -353 150.5t-290 461.5l128 55q211 -525 523 -525q50 0 97 15.5t84 43t60 63.5t23 76q0 111 -71 150q-149 -116 -277 -116q-131 0 -198 77t-67 208v676h-360v142h1058q-1 47 2 55q-11 156 -256 164
l-419 -29q-72 0 -134 21t-108.5 59.5t-73.5 94.5t-27 126q0 44 23 92.5t69 105.5l116 -81q-13 -11 -24 -30.5t-20.5 -41.5t-16 -42.5t-6.5 -34.5q0 -131 268 -131l426 31q69 0 129 -25.5t104.5 -71t69.5 -106t25 -129.5l-2 -27h131v-142h-833v-668q0 -57 10.5 -87t26 -45
t32 -18t28.5 -3q77 0 148 41.5t126 108t88.5 151t33.5 169.5q0 124 -84 124q-37 0 -111 -48l-74 98q116 92 202 92q49 0 87.5 -25.5t65 -69.5t40.5 -102.5t14 -123.5q0 -32 -10 -77.5t-27 -92.5t-38 -90.5t-41 -70.5q46 -57 71.5 -118t25.5 -126zM651 -251q-17 0 -49.5 -7.5
t-77.5 -16t-127 -10.5q-111 0 -196.5 29t-143.5 81t-88.5 123.5t-30.5 156.5q0 54 12.5 113.5t39.5 121.5l127 -33q-39 -122 -39 -172q0 -76 20.5 -128.5t66 -86t120 -48.5t177.5 -12q26 3 54.5 8t55 11t51.5 9t49 3q81 0 154 -33t140 -85v628h142v-960h-142v147
q-28 33 -66.5 62t-81 51t-86.5 35t-81 13z" />
    <glyph glyph-name="bn_tt_ma" horiz-adv-x="1651" 
d="M1308 1401h-328v142h675v-142h-205v-1670h-142v95q0 23 -26 64.5t-87 102.5q-49 48 -84 76.5t-64.5 44t-56 19.5t-57.5 4q-12 0 -27.5 -6t-28.5 -16t-21.5 -22.5t-8.5 -24.5q0 -69 108 -89l-48 -111q-44 0 -81 15.5t-64 42.5t-42 65t-15 82q0 45 21 81t56.5 61t81 38.5
t93.5 13.5q-75 137 -137 190l87 89q69 -63 118.5 -137t76.5 -161q11 -7 42.5 -31.5t66 -52.5t63 -54.5t34.5 -36.5v1328zM371 483q0 -74 23.5 -111t62.5 -37q54 0 107.5 25t102 67.5t90.5 99t73 120.5t48.5 131.5t17.5 131.5q0 100 -82 100q-38 0 -108 -45l-83 93
q104 84 196 84q46 0 86 -17.5t69.5 -49t46.5 -77t17 -99.5q0 -78 -23 -161t-63 -161.5t-95 -148t-119.5 -122t-135 -83t-142.5 -30.5q-54 0 -96.5 21t-72 58.5t-45 89.5t-15.5 113v926h-267v142h950q6 20 9.5 39t3.5 35q0 73 -63.5 107t-187.5 36l-426 -31
q-69 0 -130.5 22.5t-107.5 62.5t-73 95t-27 123q0 85 92 200l116 -81q-66 -87 -66 -152q0 -128 267 -128l424 31q74 0 135 -25.5t103.5 -71t66 -109t23.5 -137.5v-16h131v-142h-833v-918z" />
    <glyph glyph-name="bn_dd_ga" horiz-adv-x="2444" 
d="M775 860q0 -31 11 -46t38 -15q22 0 54.5 17.5t70 45.5t76 62.5t71.5 68t58 64t35 49.5q94 -62 151 -171.5t57 -264.5q0 -102 -42.5 -193.5t-115.5 -161t-171.5 -110t-210.5 -40.5q-132 0 -232.5 51t-175 137.5t-125.5 199.5t-87 237.5t-58.5 249t-38.5 228.5l141 17
q32 -254 90 -438t135 -304t168 -178.5t191 -58.5q76 0 147 34t125 88.5t86.5 125.5t32.5 145q0 57 -18.5 109.5t-53.5 104.5q-27 -42 -71.5 -87.5t-98.5 -82.5t-110 -61.5t-105 -24.5q-29 0 -59 19t-53.5 47.5t-38.5 61.5t-15 61v555h-691v142h1609v-142h-776v-541z
M2465 1543v-142h-221v-1401h-142v981q-233 428 -498 428q-46 0 -96 -20t-91.5 -54.5t-68.5 -79t-27 -94.5q0 -45 29 -45q18 0 55.5 11.5t79 25t78.5 25t53 11.5q45 0 84 -14t68.5 -41t46.5 -65.5t17 -87.5q0 -37 -25.5 -81.5t-68 -94.5t-98 -105t-116.5 -111l-116 89
q91 86 145.5 144t85 93t40.5 53.5t11 26.5q0 38 -22.5 52t-66.5 14q-8 0 -43 -13.5t-77.5 -29.5t-83 -29.5t-58.5 -13.5q-37 0 -67 14.5t-51 39t-31.5 57.5t-10.5 70q0 78 35.5 150t94.5 126t136 86.5t159 32.5q89 0 156.5 -21.5t125 -64t109.5 -108t107 -151.5v566h142
v-229h221z" />
    <glyph glyph-name="bn_dd_dda" horiz-adv-x="2453" 
d="M-63 1543h2541v-142h-761v-475q0 -58 30 -58q15 0 40.5 17t56 43t63.5 59.5t62.5 67t52.5 64t35 50.5q61 -32 111.5 -83.5t86.5 -113t55.5 -131t19.5 -139.5q0 -99 -38 -192t-101 -166t-146 -117.5t-174 -44.5q-96 0 -175.5 22.5t-149.5 75.5t-136.5 141t-135.5 220
q-23 -67 -66.5 -128t-99.5 -107t-120.5 -73t-127.5 -27q-151 0 -270 49.5t-213 162t-168 297.5t-137 457l130 33q148 -846 653 -846q64 0 121.5 31t100.5 83.5t69 121t26 143.5q0 95 -80 223q-30 -43 -80.5 -86t-108 -79t-114 -58.5t-98.5 -22.5q-135 0 -135 142v444h-619
v142zM688 1029q0 -65 25 -69q40 5 72 17.5t71.5 44t98 90t151.5 157.5q125 -96 191 -346q2 -24 8.5 -51t22 -62t42 -80.5t68.5 -104.5q69 -100 118 -159.5t92.5 -91t87 -41t100.5 -9.5q77 0 142.5 31.5t113.5 85t74 123t26 143.5q0 107 -97 264q-38 -50 -89 -97.5
t-103.5 -84.5t-102 -59.5t-83.5 -22.5q-30 0 -55.5 11t-45 30.5t-30.5 45t-11 55.5v552h-887v-372z" />
    <glyph glyph-name="bn_dd_ma" horiz-adv-x="1817" 
d="M725 860q0 -31 11 -46t38 -15q22 0 54.5 17.5t70 45.5t76 62.5t71.5 68t58 64t35 49.5q94 -62 150.5 -171.5t56.5 -264.5q0 -102 -42.5 -193.5t-115.5 -160.5t-171 -109.5t-210 -40.5q-87 0 -170.5 34t-156 90t-131.5 130t-98 155q-61 123 -101.5 300t-60.5 410h141
q32 -254 82 -438t121.5 -304t166 -178.5t215.5 -58.5q76 0 147 34t125 88.5t86.5 125.5t32.5 145q0 57 -18.5 109.5t-53.5 104.5q-27 -42 -71.5 -87.5t-98.5 -82.5t-110 -61.5t-105 -24.5q-29 0 -59 19t-53.5 47.5t-38.5 61.5t-15 61v555h-691v142h1609v-142h-776v-541z
M1119 79q-56 -8 -87.5 -13.5t-71.5 -37.5t-53.5 -71.5t-5.5 -63.5t35.5 -46t83.5 -26l-36 -127q-41 0 -92 20t-90.5 62t-49.5 83.5t2 100.5q32 88 81.5 133.5t85 65.5t80.5 37t93 17q128 1 223 -64.5t158 -153.5v1406h-183v142h540v-142h-216v-1802h-141v150q0 46 -34.5 92
t-95 108.5t-110 90t-116.5 39.5z" />
    <glyph glyph-name="bn_nn_tta" horiz-adv-x="1733" 
d="M455 829q-27 -7 -53.5 -10.5t-49.5 -3.5q-61 0 -115 28.5t-94.5 76.5t-63.5 110t-23 131q0 80 28 155.5t78 133.5t119.5 93t152.5 35q59 0 114 -23t104.5 -63.5t90.5 -97t71 -125.5v274h683q3 19 5 33t4 22l4 17q0 147 -251 147l-418 -29q-73 0 -136.5 20.5t-110 59
t-73 94t-26.5 125.5q0 85 92 200l116 -81l-61 -88q-1 -31 -4 -46q-1 -8 -1 -15q0 -28 19.5 -52t50.5 -40t68 -25.5t74 -9.5l398 24q409 0 409 -329v-27h131v-142h-830v-992q0 -20 6.5 -37.5t17.5 -32t24 -22.5t25 -8q93 0 172 57.5t148 177.5q24 43 47 93t40.5 102.5
t28.5 106t11 106.5q0 15 -5.5 30.5t-15.5 27.5t-23.5 19.5t-30.5 7.5q-47 0 -108 -53l-87 103q93 93 201 93q208 0 208 -304q0 -70 -24.5 -150.5t-65.5 -158.5t-96 -150.5t-117.5 -127t-128.5 -87.5t-130 -33q-58 0 -103 20t-75.5 57t-46 88.5t-15.5 113.5v591
q0 23 -20.5 61.5t-52 81t-72 86.5t-81 79t-77.5 57.5t-63 22.5q-251 0 -251 -263q0 -106 44.5 -159t137.5 -53l28 2z" />
    <glyph glyph-name="bn_nn_tt_ra" horiz-adv-x="1732" 
d="M455 829q-27 -7 -53.5 -10.5t-49.5 -3.5q-61 0 -115 28.5t-94.5 76.5t-63.5 110t-23 131q0 80 28 155.5t78 133.5t119.5 93t152.5 35q59 0 114 -23t104.5 -63.5t90.5 -97t71 -125.5v274h683q3 19 5 33t4 22l4 17q0 147 -251 147l-418 -29q-73 0 -136.5 20.5t-110 59
t-73 94t-26.5 125.5q0 85 92 200l116 -81l-61 -88q-1 -31 -4 -46q-1 -8 -1 -15q0 -28 19.5 -52t50.5 -40t68 -25.5t74 -9.5l398 24q409 0 409 -329v-27h131v-142h-830v-992q0 -20 6.5 -37.5t17.5 -32t24 -22.5t25 -8q93 0 172 57.5t148 177.5q24 43 47 93t40.5 102.5
t28.5 106t11 106.5q0 15 -5.5 30.5t-15.5 27.5t-23.5 19.5t-30.5 7.5q-47 0 -108 -53l-87 103q93 93 201 93q208 0 208 -304q0 -70 -24.5 -150.5t-65.5 -158.5t-96 -150.5t-117.5 -127t-128.5 -87.5t-130 -33q-58 0 -103 20t-75.5 57t-46 88.5t-15.5 113.5v591
q0 23 -20.5 61.5t-52 81t-72 86.5t-81 79t-77.5 57.5t-63 22.5q-251 0 -251 -263q0 -106 44.5 -159t137.5 -53l28 2zM1062 -70q-17 0 -49.5 -7.5t-77.5 -16t-127 -10.5q-111 0 -196.5 29t-143.5 81t-88.5 123.5t-30.5 156.5q0 54 12.5 113.5t39.5 121.5l127 -33
q-39 -122 -39 -172q0 -76 20.5 -128.5t66 -86t120 -48.5t177.5 -12q26 3 54.5 8t55 11t51.5 9t49 3q81 0 154 -33t140 -85v628h142v-960h-142v147q-28 33 -66.5 62t-81 51t-86.5 35t-81 13z" />
    <glyph glyph-name="bn_nn_ttha" horiz-adv-x="1416" 
d="M435 541q0 -58 21.5 -112t60 -95t89 -66t109.5 -25q96 0 174.5 39t134 109.5t85.5 167.5t30 215q0 40 -10 81t-31 90.5t-53 111t-77 143.5q-11 -251 -148.5 -421t-384.5 -238zM335 823q-62 0 -117 30.5t-95.5 81.5t-63.5 117t-23 137q0 76 23 144t66.5 120t104 83
t137.5 31q300 0 482 -309q0 89 -158 359q-158 273 -158 459q0 207 166 282l87 -82q-31 -19 -52 -40.5t-33.5 -53t-17.5 -77.5t-5 -114q0 -27 21 -83.5t53 -122t70.5 -131t73.5 -111.5h566v-142h-472q48 -82 88.5 -145.5t73 -117t56 -100.5t39 -96.5t23 -105.5t7.5 -126
q0 -128 -44 -239.5t-121 -194t-180.5 -129.5t-224.5 -47q-87 0 -163.5 38.5t-134.5 101t-91 143.5t-33 168q0 36 2 63t9 46q472 130 472 408q0 57 -38.5 122t-96 122t-124 94t-124.5 37q-49 0 -88 -19.5t-67 -53.5t-42 -78.5t-14 -94.5q0 -240 249 -240z" />
    <glyph glyph-name="bn_nn_dda" horiz-adv-x="1541" 
d="M1157 1598q62 -75 104 -136t69 -114.5t40.5 -102.5t19.5 -99q9 -93 -13.5 -162.5t-88.5 -117.5q38 -39 64.5 -71.5t42.5 -66t23 -71t7 -86.5q0 -83 -30.5 -155t-82.5 -126t-122.5 -85t-149.5 -31q-194 0 -348.5 100t-282.5 299q-65 99 -143.5 280t-172.5 448l142 43
q30 -115 74 -236t100 -235t123 -215.5t143.5 -177.5t161 -120t174.5 -44q64 0 114.5 21t85.5 56.5t53.5 82t18.5 97.5q0 63 -28 125t-86 116q-80 -26 -171 -33l-28 137q77 0 135 16.5t94.5 49.5t49 81.5t-0.5 112.5q-8 39 -24.5 79t-33 72t-29.5 52.5t-13 19.5l-195 -267
q-31 67 -62.5 121t-64.5 93.5t-68.5 62.5t-75.5 27h-8q-36 0 -66.5 -14.5t-52.5 -39.5t-34.5 -57.5t-12.5 -69.5q0 -34 9.5 -66t26 -56.5t40 -39.5t51.5 -15q23 0 52 15l-48 -131l-34 -2h-13q-47 0 -88 26t-71.5 67.5t-48 94t-17.5 105.5q0 63 24.5 121t67 102.5t99 71
t121.5 26.5q42 0 87.5 -19t85.5 -50.5t70.5 -73t44.5 -85.5z" />
    <glyph glyph-name="bn_nn_dda1" horiz-adv-x="1841" 
d="M1059 860q0 -61 47 -61q23 0 56 17.5t71 45.5t76.5 62.5t71.5 68t58 64t36 49.5q93 -62 150 -171.5t57 -264.5q0 -102 -40 -205t-119 -186t-195 -135t-269 -52q-175 0 -290.5 55t-223.5 147t-187 213.5t-131 254t-80.5 266.5t-34.5 254h151q2 -190 51.5 -353t118 -278.5
t146.5 -195.5t149.5 -128t160.5 -71.5t170 -23.5q112 0 202 45.5t152 114t95 151t33 156.5q0 57 -19.5 109.5t-51.5 104.5q-27 -42 -73 -87.5t-99.5 -82.5t-109.5 -61.5t-103 -24.5q-31 0 -61 19t-53 47.5t-37.5 61.5t-14.5 61v160q-67 121 -135 187q-69 68 -142 68
q-61 0 -92.5 -38.5t-31.5 -88.5q0 -35 61 -100l-91 -77q-111 77 -111 190q0 54 20.5 101t57 81t85 53t105.5 19q129 0 274 -162v304h918v-142h-778v-541z" />
    <glyph glyph-name="bn_nn_dd_ra" horiz-adv-x="1541" 
d="M1157 1598q62 -75 104 -136t69 -114.5t40.5 -102.5t19.5 -99q9 -93 -13.5 -162.5t-88.5 -117.5q38 -39 64.5 -71.5t42.5 -66t23 -71t7 -86.5q0 -83 -30.5 -155t-82.5 -126t-122.5 -85t-149.5 -31q-194 0 -348.5 100t-282.5 299q-65 99 -143.5 280t-172.5 448l142 43
q30 -115 74 -236t100 -235t123 -215.5t143.5 -177.5t161 -120t174.5 -44q64 0 114.5 21t85.5 56.5t53.5 82t18.5 97.5q0 63 -28 125t-86 116q-80 -26 -171 -33l-28 137q77 0 135 16.5t94.5 49.5t49 81.5t-0.5 112.5q-8 39 -24.5 79t-33 72t-29.5 52.5t-13 19.5l-195 -267
q-31 67 -62.5 121t-64.5 93.5t-68.5 62.5t-75.5 27h-8q-36 0 -66.5 -14.5t-52.5 -39.5t-34.5 -57.5t-12.5 -69.5q0 -34 9.5 -66t26 -56.5t40 -39.5t51.5 -15q23 0 52 15l-48 -131l-34 -2h-13q-47 0 -88 26t-71.5 67.5t-48 94t-17.5 105.5q0 63 24.5 121t67 102.5t99 71
t121.5 26.5q42 0 87.5 -19t85.5 -50.5t70.5 -73t44.5 -85.5zM968 -70q-17 0 -49.5 -7.5t-77.5 -16t-127 -10.5q-111 0 -196.5 29t-143.5 81t-88.5 123.5t-30.5 156.5q0 54 12.5 113.5t39.5 121.5l127 -33q-39 -122 -39 -172q0 -76 20.5 -128.5t66 -86t120 -48.5t177.5 -12
q26 3 54.5 8t55 11t51.5 9t49 3q81 0 154 -33t140 -85v628h142v-960h-142v147q-28 33 -66.5 62t-81 51t-86.5 35t-81 13z" />
    <glyph glyph-name="bn_nn_dd_ra1" horiz-adv-x="1831" 
d="M1059 860q0 -61 47 -61q23 0 56 17.5t71 45.5t76.5 62.5t71.5 68t58 64t36 49.5q93 -62 150 -171.5t57 -264.5q0 -102 -40 -205t-119 -186t-195 -135t-269 -52q-175 0 -290.5 55t-223.5 147t-187 213.5t-131 254t-80.5 266.5t-34.5 254h151q2 -190 51.5 -353t118 -278.5
t146.5 -195.5t149.5 -128t160.5 -71.5t170 -23.5q112 0 202 45.5t152 114t95 151t33 156.5q0 57 -19.5 109.5t-51.5 104.5q-27 -42 -73 -87.5t-99.5 -82.5t-109.5 -61.5t-103 -24.5q-31 0 -61 19t-53 47.5t-37.5 61.5t-14.5 61v160q-67 121 -135 187q-69 68 -142 68
q-61 0 -92.5 -38.5t-31.5 -88.5q0 -35 61 -100l-91 -77q-111 77 -111 190q0 54 20.5 101t57 81t85 53t105.5 19q129 0 274 -162v304h918v-142h-778v-541zM1139 -221q-17 0 -49.5 -7.5t-77.5 -16t-127 -10.5q-111 0 -196.5 29t-143.5 81t-88.5 123.5t-30.5 156.5
q0 54 12.5 113.5t39.5 121.5l127 -33q-39 -122 -39 -172q0 -76 20.5 -128.5t66 -86t120 -48.5t177.5 -12q26 3 54.5 8t55 11t51.5 9t49 3q81 0 154 -33t140 -85v628h142v-960h-142v147q-28 33 -66.5 62t-81 51t-86.5 35t-81 13z" />
    <glyph glyph-name="bn_nn_ddha" horiz-adv-x="1683" 
d="M768 882q-5 27 -65.5 131.5t-121.5 167t-175 80.5q-121 -9 -184.5 -76t-63.5 -198q0 -104 44.5 -157.5t137.5 -53.5l27 4l47 -133q-27 -7 -53 -10.5t-49 -3.5q-61 0 -115 30t-95 78.5t-65 112t-24 130.5q0 81 28.5 156.5t79 133t121 92.5t154.5 35q56 0 111 -21.5
t103.5 -61.5t89 -94.5t68.5 -120.5v440h974v-142h-829v-1103q0 -44 3 -71t12.5 -42.5t26 -22.5t40.5 -12q55 5 110 35.5t104 77t90.5 106.5t71.5 127.5t47 138.5t17 139q0 105 -84 105q-19 0 -45 -11t-61 -34l-84 95q119 92 202 92q42 0 80.5 -24t68.5 -60.5t46.5 -81.5
t16.5 -87q0 -82 -22.5 -170.5t-63 -173t-96 -160t-119.5 -133t-134.5 -90.5t-141.5 -33q-54 0 -96.5 21t-72.5 59t-45.5 90t-15.5 112v592z" />
    <glyph glyph-name="bn_nn_nna" horiz-adv-x="1245" 
d="M984 77q-7 28 -29 66.5t-54.5 81t-71 84.5t-76.5 75t-72 54t-59 21q-125 0 -188.5 -71.5t-63.5 -202.5q0 -105 44.5 -158.5t138.5 -53.5l27 3l50 -131q-29 -7 -55.5 -10.5t-49.5 -3.5q-61 0 -115 29t-94.5 77.5t-63 112t-22.5 132.5q0 80 27.5 155.5t77.5 133.5t120 93
t154 35q57 0 111.5 -21.5t103 -61t89.5 -94.5t71 -121v647q0 39 -16 87t-43 98t-62 97t-73.5 84t-78 59.5t-72.5 22.5q-72 0 -131.5 -21t-102.5 -61t-66.5 -97t-23.5 -130q0 -38 16 -82t43 -81.5t63.5 -63.5t76.5 -26q26 0 50 12l-47 -141q-8 -3 -17 -3h-19
q-60 0 -115.5 38.5t-98 95t-68 123t-25.5 122.5q0 83 30.5 164.5t84 146.5t128 105.5t163.5 40.5q127 0 226 -70.5t178 -209.5v559h142v-274h262v-142h-262v-1794h-142v470z" />
    <glyph glyph-name="bn_nn_ma" horiz-adv-x="1621" 
d="M454 705q-8 -3 -17 -3h-19q-60 0 -115.5 38.5t-98 95t-68 123t-25.5 122.5q0 83 30.5 164.5t84 146.5t128 105.5t163.5 40.5q127 0 226 -70.5t178 -209.5v513h142v-228h262v-142h-262v-1401h-142v948q0 39 -16 87t-43 98t-62 97t-73.5 84t-78 59.5t-72.5 22.5
q-72 0 -131.5 -21t-102 -61t-66 -97t-23.5 -130q0 -38 15.5 -82t43 -81.5t63.5 -63.5t76 -26q26 0 50 12zM1030 5q-12 0 -26.5 -6t-27.5 -16t-22 -22t-9 -24q0 -14 10.5 -25.5t26 -20t34 -13.5t36.5 -5l-46 -111q-40 0 -76.5 13.5t-65 37.5t-44.5 57.5t-16 74.5
q0 39 21.5 75.5t56.5 64.5t81 45t94 17q80 0 152.5 -40t139.5 -112v1406h-184v142h531v-142h-205v-1802h-142v150q0 46 -34.5 92t-84.5 82t-104.5 59t-95.5 23z" />
    <glyph glyph-name="bn_t_ta" horiz-adv-x="1535" 
d="M-97 1401v142h1717v-142h-1717zM1280 730q39 -39 64 -97.5t25 -139.5q0 -88 -35 -167.5t-99.5 -141t-154 -98t-198.5 -36.5q-199 0 -364.5 183.5t-309.5 554.5q-4 8 -42 117.5t-111 324.5l135 44q14 -56 39 -136t56.5 -166t66 -173.5t66.5 -159t57 -120.5t37 -60
q85 -135 189.5 -202t246.5 -67q52 0 103 32.5t90 84.5t62.5 115.5t23.5 125.5q0 41 -15 69t-46 43q-79 -24 -171 -32l-27 137q279 0 279 261q0 40 -19.5 72t-53 53t-79 32.5t-95.5 11.5q-60 0 -118.5 -20.5t-103.5 -51t-72.5 -68t-27.5 -71.5q0 -43 27.5 -78t88.5 -62
l-56 -129q-202 91 -202 269q0 74 44.5 139t117.5 111.5t166 73.5t189 27q74 0 136 -25.5t106 -71.5t68.5 -109t24.5 -137q0 -28 -10 -67t-26 -77.5t-34.5 -71t-37.5 -46.5z" />
    <glyph glyph-name="bn_t_t_ba" horiz-adv-x="1535" 
d="M-97 1401v142h1717v-142h-1717zM1280 730q39 -39 64 -97.5t25 -139.5q0 -88 -35 -167.5t-99.5 -141t-154 -98t-198.5 -36.5q-199 0 -364.5 183.5t-309.5 554.5q-4 8 -42 117.5t-111 324.5l135 44q14 -56 39 -136t56.5 -166t66 -173.5t66.5 -159t57 -120.5t37 -60
q85 -135 189.5 -202t246.5 -67q52 0 103 32.5t90 84.5t62.5 115.5t23.5 125.5q0 41 -15 69t-46 43q-79 -24 -171 -32l-27 137q279 0 279 261q0 40 -19.5 72t-53 53t-79 32.5t-95.5 11.5q-60 0 -118.5 -20.5t-103.5 -51t-72.5 -68t-27.5 -71.5q0 -43 27.5 -78t88.5 -62
l-56 -129q-202 91 -202 269q0 74 44.5 139t117.5 111.5t166 73.5t189 27q74 0 136 -25.5t106 -71.5t68.5 -109t24.5 -137q0 -28 -10 -67t-26 -77.5t-34.5 -71t-37.5 -46.5zM1074 -632v126q-37 70 -79 120t-92.5 81t-113.5 46t-142 15l-61 131q211 215 489 348h141v-867h-142
zM1074 80q-95 -43 -170.5 -93.5t-132.5 -107.5q185 -39 303 -174v375z" />
    <glyph glyph-name="bn_t_tha" horiz-adv-x="1388" 
d="M1465 1401h-199v-1443h-132v136q-394 423 -678 447l-129 12l-166 249q47 -7 104.5 -9t124.5 -2q73 0 152.5 26.5t146 69.5t109.5 100.5t43 118.5q0 118 -136 237q-15 -24 -41.5 -55t-61.5 -66l20 -83l-124 -33q-21 91 -36.5 146t-34 83t-43 36.5t-63.5 8.5
q-31 0 -56.5 -11.5t-44.5 -32t-29.5 -47.5t-10.5 -56q0 -63 86 -117l96 -16v-132q-73 0 -132 17.5t-100.5 51.5t-64.5 82.5t-23 110.5q0 287 322 287q115 0 195 -162q23 31 59.5 72.5t83.5 97.5q77 -55 129.5 -105.5t85.5 -102t47.5 -107.5t14.5 -123q0 -64 -35 -128
t-93.5 -120.5t-133 -102t-155.5 -69.5q321 -118 567 -363v1413h137v-174h199v-142z" />
    <glyph glyph-name="bn_t_na" horiz-adv-x="1504" 
d="M-72 1401v142h1743v-142h-1743zM634 810q-29 57 -43.5 108t-14.5 95q0 60 28 113.5t75.5 93.5t112.5 62.5t141 22.5q117 0 207.5 -52.5t151 -138t92 -193.5t31.5 -219q0 -113 -32.5 -220.5t-97 -191t-161 -135t-222.5 -51.5q-141 0 -244 46t-177.5 125t-125 183.5
t-85.5 221t-66.5 258.5t-51.5 266l145 23l13 -77q18 -100 38 -206t48.5 -206.5t69 -190t98 -156.5t135 -106t181.5 -39q101 0 175.5 39t123 103t71.5 146t23 168q0 85 -22.5 168t-65.5 148t-106.5 105.5t-145.5 40.5q-40 0 -77.5 -13.5t-68.5 -38.5t-50 -59.5t-19 -76.5
q0 -19 8.5 -43t27.5 -54zM1273 -509q-98 218 -221.5 326t-257.5 108q-148 0 -148 -152q0 -71 110 -108l-44 -130q-208 72 -208 274q0 51 25.5 98t67.5 82t92.5 56t101.5 21q62 0 118 -15.5t113 -52t118.5 -98t132.5 -152.5v935h141v-1394h-141v202z" />
    <glyph glyph-name="bn_t_ma" horiz-adv-x="1631" 
d="M529 1015q-39 54 -39 122q0 48 18 89.5t50.5 71.5t75.5 47.5t93 17.5q75 0 143.5 -27.5t121.5 -76.5t84 -115.5t31 -143.5q6 -263 -173 -376q16 -11 37 -45.5t44 -77.5q89 -38 156.5 -87.5t114.5 -109.5v1097h-1329v142h1679v-142h-209v-1493h-138v150q0 28 -23 63.5
t-61 72t-85 70.5t-95 61t-92 43.5t-75 16.5q-12 0 -27 -8t-29 -19.5t-23.5 -25t-9.5 -26.5q0 -21 39 -52l69 -14l-19 -113q-44 0 -85.5 14t-73 39t-49.5 60t-18 79q0 87 63 141t177 54q-8 19 -19 35.5t-26 28.5q-59 -16 -147 -16q-78 0 -162 39t-161 127q-54 60 -95.5 125
t-76 134t-63.5 142.5t-57 150.5l126 50q63 -169 109.5 -272.5t73.5 -144.5q137 -214 376 -214q44 0 83.5 24.5t69.5 65t47.5 93t17.5 108.5q0 40 -17 82t-44.5 75.5t-65 55t-77.5 21.5q-46 0 -73 -11.5t-41 -27t-19 -30t-5 -21.5v-3q0 -35 22 -81z" />
    <glyph glyph-name="bn_t_ma1" horiz-adv-x="1866" 
d="M-72 1401v142h1963v-142h-185v-1802h-141v150q0 46 -34.5 92t-84 82t-104 59t-95.5 23q-13 0 -28.5 -6t-28.5 -16t-21 -22t-8 -24q0 -14 10 -25.5t25.5 -20t34.5 -13.5t35 -5l-44 -111q-41 0 -77.5 13.5t-64 37.5t-43.5 57.5t-16 74.5q0 39 21.5 75.5t56.5 64.5t80 45
t93 17q81 0 153.5 -40t139.5 -112v1406h-1637zM634 810q-29 57 -43.5 108t-14.5 95q0 60 28 113.5t75.5 93.5t112.5 62.5t141 22.5q117 0 207.5 -52.5t151 -138t92 -193.5t31.5 -219q0 -113 -32.5 -220.5t-97 -191t-161 -135t-222.5 -51.5q-141 0 -244 46t-177.5 125
t-125 183.5t-85.5 221t-66.5 258.5t-51.5 266l145 23l13 -77q18 -100 38 -206t48.5 -206.5t69 -190t98 -156.5t135 -106t181.5 -39q101 0 175.5 39t123 103t71.5 146t23 168q0 85 -22.5 168t-65.5 148t-106.5 105.5t-145.5 40.5q-40 0 -77.5 -13.5t-68.5 -38.5t-50 -59.5
t-19 -76.5q0 -19 8.5 -43t27.5 -54z" />
    <glyph glyph-name="bn_t_la" horiz-adv-x="1504" 
d="M1138 -388q0 73 -4 125.5t-15 86.5t-30 49.5t-48 15.5q-38 -3 -53.5 -30.5t-15.5 -61.5q0 -19 4 -39.5t12 -34.5l-121 -48q-14 58 -38.5 107t-54.5 84t-65 54.5t-72 19.5q-77 0 -128 -39t-51 -115q0 -32 8 -54.5t27 -36.5t50 -22.5t78 -13.5l50 -131q-116 -25 -175.5 1.5
t-98.5 62.5t-61.5 86.5t-22.5 112.5q0 56 27 108.5t71.5 93.5t101.5 66t116 25q70 0 133.5 -34.5t114.5 -100.5q18 39 53 59.5t92 20.5q20 0 49 -17t64 -52v335h141v-683h-138zM-72 1401v142h1743v-142h-1743zM634 810q-29 57 -43.5 108t-14.5 95q0 60 28 113.5t75.5 93.5
t112.5 62.5t141 22.5q117 0 207.5 -52.5t151 -138t92 -193.5t31.5 -219q0 -113 -32.5 -220.5t-97 -191t-161 -135t-222.5 -51.5q-141 0 -244 46t-177.5 125t-125 183.5t-85.5 221t-66.5 258.5t-51.5 266l145 23l13 -77q18 -100 38 -206t48.5 -206.5t69 -190t98 -156.5
t135 -106t181.5 -39q101 0 175.5 39t123 103t71.5 146t23 168q0 85 -22.5 168t-65.5 148t-106.5 105.5t-145.5 40.5q-40 0 -77.5 -13.5t-68.5 -38.5t-50 -59.5t-19 -76.5q0 -19 8.5 -43t27.5 -54z" />
    <glyph glyph-name="bn_d_ga" horiz-adv-x="2160" 
d="M309 760q55 76 131 148.5t163 129.5t181.5 91.5t186.5 34.5l42 -3l106 -80q-28 -54 -50.5 -124t-38 -149.5t-23 -167t-7.5 -173.5q0 -119 15 -231t43 -205l-129 -26q-35 111 -52 234t-17 250q0 136 19 268.5t58 255.5q-362 -48 -639 -540l-124 83v845h-304v142h962v-142
h-523v-641zM2185 1543v-142h-221v-1401h-142v981q-233 428 -498 428q-46 0 -96 -20t-91.5 -54.5t-68.5 -79t-27 -94.5q0 -45 29 -45q18 0 55.5 11.5t79 25t78.5 25t53 11.5q45 0 84 -14t68.5 -41t46.5 -65.5t17 -87.5q0 -37 -25.5 -81.5t-68 -94.5t-98 -105t-116.5 -111
l-116 89q91 86 145.5 144t85 93t40.5 53.5t11 26.5q0 38 -22.5 52t-66.5 14q-8 0 -43 -13.5t-77.5 -29.5t-83 -29.5t-58.5 -13.5q-37 0 -67 14.5t-51 39t-31.5 57.5t-10.5 70q0 78 35.5 150t94.5 126t136 86.5t159 32.5q89 0 156.5 -21.5t125 -64t109.5 -108t107 -151.5v566
h142v-229h221z" />
    <glyph glyph-name="bn_d_gha" horiz-adv-x="2060" 
d="M309 760q55 76 131 148.5t163 129.5t181.5 91.5t186.5 34.5l42 -3l106 -80q-28 -54 -50.5 -124t-38 -149.5t-23 -167t-7.5 -173.5q0 -119 15 -231t43 -205l-129 -26q-35 111 -52 234t-17 250q0 136 19 268.5t58 255.5q-362 -48 -639 -540l-124 83v845h-304v142h962v-142
h-523v-641zM1028 752l216 227q-13 -3 -25.5 -4.5t-24.5 -1.5q-60 0 -114.5 22.5t-97 60t-67.5 87.5t-25 107q0 38 11.5 75.5t38.5 75.5h-219v142h1354v-142h-217v-1401h-142v180q-39 90 -104.5 167t-150.5 136.5t-184.5 100t-204.5 57.5zM1102 1401q-39 -35 -54.5 -68
t-15.5 -64q0 -38 22 -66.5t57 -48t80.5 -29.5t91.5 -10q59 0 102.5 18.5t90.5 69.5l90 -100q-85 -81 -174 -168t-182 -183q93 -35 160 -63.5t121.5 -63.5t107 -82.5t117.5 -117.5v976h-614z" />
    <glyph glyph-name="bn_d_da" horiz-adv-x="1500" 
d="M286 834q64 117 236 240.5t251 141.5l88 -90q-33 -68 -61.5 -153t-34 -175.5t-3.5 -150.5q166 253 481 382l94 -84q-91 -287 -95 -482q0 -242 51 -416l-139 -28q-33 111 -49.5 233.5t-11.5 218.5q-5 161 60 345q-49 -10 -181.5 -141t-192.5 -263l-153 68q-17 204 -5 340
t33 183q-104 -69 -195.5 -181.5t-172.5 -243.5l-138 76v747h-182v142h1574v-142h-1254v-567z" />
    <glyph glyph-name="bn_d_d_ba" horiz-adv-x="1482" 
d="M286 834q64 117 236 240.5t251 141.5l88 -90q-33 -68 -61.5 -153t-34 -175.5t-3.5 -150.5q166 253 481 382l94 -84q-91 -287 -95 -482q0 -242 51 -416l-139 -28q-33 111 -49.5 233.5t-11.5 218.5q-5 161 60 345q-49 -10 -181.5 -141t-192.5 -263l-153 68q-17 204 -5 340
t33 183q-104 -69 -195.5 -181.5t-172.5 -243.5l-138 76v747h-182v142h1574v-142h-1254v-567zM1114 -593v126q-37 70 -79 120t-92.5 81t-113.5 46t-142 15l-61 131q211 215 489 348h141v-867h-142zM1114 119q-95 -43 -170.5 -93.5t-132.5 -107.5q185 -39 303 -174v375z" />
    <glyph glyph-name="bn_d_d_ra" horiz-adv-x="1480" 
d="M286 834q64 117 236 240.5t251 141.5l88 -90q-33 -68 -61.5 -153t-34 -175.5t-3.5 -150.5q166 253 481 382l94 -84q-91 -287 -95 -482q0 -242 51 -416l-139 -28q-33 111 -49.5 233.5t-11.5 218.5q-5 161 60 345q-49 -10 -181.5 -141t-192.5 -263l-153 68q-17 204 -5 340
t33 183q-104 -69 -195.5 -181.5t-172.5 -243.5l-138 76v747h-182v142h1574v-142h-1254v-567zM160 459q-3 -13 -3 -26v-26q0 -61 13.5 -118t43 -101.5t75 -71.5t108.5 -27q65 0 130 23t129.5 50.5t129.5 50.5t128 23q50 0 103 -9t103 -28l52 -177q-52 32 -122.5 50.5
t-137.5 18.5q-65 0 -127 -22t-123.5 -49t-124.5 -49.5t-132 -22.5q-94 0 -167 35t-123 94.5t-76 136t-26 160.5q0 20 2.5 42t6.5 43h138z" />
    <glyph glyph-name="bn_d_dha" horiz-adv-x="1459" 
d="M860 678l-319 -200q15 -4 91.5 -45t227.5 -185v430zM359 506l501 328v189q-21 57 -53.5 73t-68.5 20q-47 3 -104.5 -20t-162 -127.5t-151 -196.5t-46.5 -128h-144v757h-193v142h1548v-142h-1214v-467q89 117 195 201.5t231 109.5q145 8 213.5 -55t80.5 -107t12 -81.5v-59
t-3 -52.5q77 35 133 54t91 19q61 0 97.5 -60.5t36.5 -216.5q-12 -234 -12 -304q0 -39 4 -79.5t16.5 -114t65.5 -169.5l-127 -50q-99 197 -94 393v326q6 79 -11 135l-200 -88v-759h-140v58q-86 132 -221 227t-257 126z" />
    <glyph glyph-name="bn_d_dh_ba" horiz-adv-x="1459" 
d="M860 -309v141q-28 47 -73 85t-97.5 65t-111 41t-116.5 14l-92 132q78 81 166 151q-24 11 -50 22q-46 20 -104 45l-23 119l501 328v189q-27 42 -65.5 62.5t-81.5 20.5q-33 0 -78 -24.5t-93.5 -63.5t-96.5 -89t-86 -101.5t-61.5 -99.5t-23.5 -84h-144v757h-193v142h1548
v-142h-1214v-467q30 46 85.5 100t118 100.5t122.5 78.5t100 32q60 0 116 -19t98 -53.5t67 -84t25 -109.5v-37q0 -21 -3 -52q77 35 133 54t91 19q61 0 97.5 -60.5t36.5 -180.5v-36q0 -89 -6 -161.5t-6 -142.5q0 -39 4 -79.5t13.5 -85t26.5 -93t42 -105.5l-127 -50
q-94 255 -94 393q0 8 0.5 45t2 85.5t2 101.5t0.5 94q0 103 -16 135q-8 -6 -58 -25t-142 -54v-213v-840h-140zM860 349q-80 -43 -168.5 -99t-116.5 -83q205 -76 285 -164v346zM860 533v145l-319 -200q10 -3 37 -15.5t74 -42.5z" />
    <glyph glyph-name="bn_d_na" horiz-adv-x="1266" 
d="M337 1401v-646q142 185 312.5 287.5t380.5 121.5l121 -91q-69 -123 -97 -270t-28 -302q0 -123 15.5 -245t61.5 -449l-131 -24q-101 217 -224.5 325t-258.5 108q-73 0 -109.5 -36.5t-36.5 -116.5q0 -35 26.5 -60.5t84.5 -47.5l-48 -129q-101 38 -154.5 104.5t-53.5 172.5
q0 50 26 96.5t67.5 81t92.5 55t102 20.5q62 0 118 -14.5t113.5 -51t118.5 -97.5q39 -39 83 -89q-12 77 -18 123q-17 124 -17 251q0 135 19 267.5t58 254.5q-181 -23 -333.5 -156.5t-291.5 -351.5l-141 107v802h-218v142h1296v-142h-936z" />
    <glyph glyph-name="bn_d_bha" horiz-adv-x="1543" 
d="M1404 528q0 -96 -40.5 -180.5t-113 -147t-174 -98.5t-222.5 -36q-76 0 -151.5 31t-146.5 85t-136 126.5t-117 155.5t-86 161.5t-47 139.5l129 45q37 -136 101.5 -247.5t144 -190.5t168.5 -121.5t177 -42.5q73 0 140.5 25.5t119.5 71.5t83 108t31 135q0 53 -28 140
l-133 -152q-39 -35 -83 -57.5t-94 -22.5q-41 0 -77.5 17t-63.5 45.5t-42.5 66t-15.5 79.5q0 83 45.5 118.5t139.5 35.5l31 -105q-72 -8 -72 -56q0 -31 11.5 -45.5t46.5 -14.5q46 8 83 36q12 9 25 20q-9 51 -15.5 153.5t31.5 293.5q-102 -21 -206 -68t-184.5 -108.5
t-142.5 -146.5l-142 123v501h-445v142h1621v-142h-1034v-416q270 213 597 270l94 -108q-43 -115 -51.5 -208.5t-0.5 -152.5l3 3q41 48 95 93q65 -86 106 -174t41 -180z" />
    <glyph glyph-name="bn_d_bh_ra" horiz-adv-x="1499" 
d="M1030 696q-2 8 -8.5 110.5t31.5 293.5q-102 -21 -206 -68t-184.5 -108.5t-142.5 -146.5l-142 123v501h-445v142h1621v-142h-1034v-416q270 213 597 270l94 -108q-43 -115 -51.5 -208.5t-0.5 -152.5l120 -40v-924h-142v147q-43 42 -104 55.5t-126 13.5q-35 0 -70.5 -2.5
t-69.5 -5.5q-464 0 -464 417q0 72 42 235l137 -38q-21 -73 -30 -120.5t-9 -70.5q0 -77 17.5 -130.5t56 -87t100.5 -49.5t150 -16q54 0 94 5t78 5q45 0 90.5 -11.5t107.5 -46.5v470q-53 -49 -98 -89t-85.5 -67.5t-79.5 -42.5t-80 -15q-58 0 -104.5 20t-79 52t-50 76t-17.5 93
q0 37 13 69.5t36.5 56t55 37t69.5 13.5q19 0 35 -2t29 -8l-19 -98q-58 0 -81 -29l-8 -42q0 -22 12 -39.5t31 -30t43 -19.5t47 -7q16 0 42 17t65.5 51.5t94.5 86.5q10 10 22 21z" />
    <glyph glyph-name="bn_d_bh_ra1" horiz-adv-x="1496" 
d="M1404 528q0 -96 -40.5 -180.5t-113 -147t-174 -98.5t-222.5 -36q-76 0 -151.5 31t-146.5 85t-136 126.5t-117 155.5t-86 161.5t-47 139.5l129 45q37 -136 101.5 -247.5t144 -190.5t168.5 -121.5t177 -42.5q73 0 140.5 25.5t119.5 71.5t83 108t31 135q0 53 -28 140
l-133 -152q-39 -35 -83 -57.5t-94 -22.5q-41 0 -77.5 17t-63.5 45.5t-42.5 66t-15.5 79.5q0 83 45.5 118.5t139.5 35.5l31 -105q-72 -8 -72 -56q0 -31 11.5 -45.5t46.5 -14.5q46 8 83 36q12 9 25 20q-9 51 -15.5 153.5t31.5 293.5q-102 -21 -206 -68t-184.5 -108.5
t-142.5 -146.5l-142 123v501h-445v142h1621v-142h-1034v-416q270 213 597 270l94 -108q-43 -115 -51.5 -208.5t-0.5 -152.5l3 3q41 48 95 93q65 -86 106 -174t41 -180zM894 -296q-17 0 -49.5 -7.5t-77.5 -16t-127 -10.5q-111 0 -196.5 29t-143.5 81t-88.5 123.5t-30.5 156.5
q0 54 12.5 113.5t39.5 121.5l127 -33q-39 -122 -39 -172q0 -76 20.5 -128.5t66 -86t120 -48.5t177.5 -12q26 3 54.5 8t55 11t51.5 9t49 3q81 0 154 -33t140 -85v628h142v-960h-142v147q-28 33 -66.5 62t-81 51t-86.5 35t-81 13z" />
    <glyph glyph-name="bn_d_ma" horiz-adv-x="1370" 
d="M-63 1401v142h1453v-142h-222v-1401h-142v180q-239 309 -369 309q-16 0 -36 -7t-37.5 -19.5t-30 -31t-12.5 -41.5q0 -34 25 -61.5t59 -27.5q19 0 37 7t37 21l26 -108q-38 -19 -66.5 -27.5t-46.5 -8.5q-41 0 -76.5 17t-62.5 45t-43 66t-16 80q0 169 238 216q-3 16 3 174.5
t70 338.5q-124 -84 -252 -234.5t-196 -275.5l-142 99v690h-198zM277 863q223 308 480 422l139 -96q-87 -159 -107 -351.5t7 -257.5q125 -87 230 -203v1024h-749v-538z" />
    </font>
</defs>
</svg>
